Loading...
Error

Скачать Слепое пятно / Blindspot (Сезон 02, серии 01-09 из 13) (Марк Пеллингтон) [2016, детектив, криминал, драма, WEB-DLRip] [MVO] (AlexFilm) торрент без регистрации

 
Статистика раздачи
Размер:  4,55 GB   |    Скачан:  64 раза
Сидов:  1  [  0 KB/s  ]  
 
Автор Сообщение

leon030982

[] 


Слепое пятно / Blindspot

Год выпуска: 2016
Страна: США
Жанр: детектив, криминал, драма
Продолжительность: ~ 00:44:00
Озвучание: Профессиональное (многоголосое закадровое) (AlexFilm)
Субтитры: нет

Режиссер: Марк Пеллингтон

В ролях: Джейми Александер, Салливан Степлтон, Одри Эспарза, Роб Браун, СиДжей Парсон, Майкл Гэстон, Логан Смит, Марианн Жан-Батист и др.

Описание: В центре сюжета находится потерявшая свою память девушка, которая оказывается в центре расследования после того, как смогла выбраться из брезентового мешка в самом центре Нью-Йорк Сити на Таймс Сквер. Не имея ни малейшего представления о том, кто она такая, девушка не знает, что обозначают многочисленные загадочные татуировки, которыми покрыто все ее тело. Когда выясняется, что татуировки являются чем-то вроде дорожной карты, к делу подключается ФБР.

Релиз:
Перевод: Константин Кривоногов
Монтаж и сведение звука: Михаил Шорыгин
Роли озвучивали:Евгения Тихонова
Екатерина Муравицкая
Михаил Суслов
Константин Погодаев
Андрей Стакионис
Рустам Шайхиев

Сэмпл: http://sendfile.su/1265766


Качество: WEB-DLRip
Формат: AVI
Видео: 720x400 (1.80:1), 23,976 fps, XviD ~1400 kbps avg, 0.20 bit/pixel
Аудио Rus: 48 kHz, MPEG Layer 3, 2 ch, ~128.00 kbps
Аудио Eng: 48 kHz, MPEG Layer 3, 2 ch, ~128.00 kbps

Торент обновлен! Добавлена 9-я серия!
Формат : AVI
Формат/Информация : Audio Video Interleave
Размер файла : 522 Мбайт
Продолжительность : 43 м. 36 с.
Общий поток : 1672 Кбит/сек
Название фильма : Blindspot 2x01 @ AlexFilm
Программа кодирования : VirtualDubMod 1.5.10.2 (build 2540/release)
Библиотека кодирования : VirtualDubMod build 2540/release
Видео
Идентификатор : 0
Формат : MPEG-4 Visual
Профиль формата : Advanced Simple@L5
Параметр BVOP формата : Нет
Параметр QPel формата : Нет
Параметр GMC формата : Без точки перехода
Параметр матрицы формата : Default (MPEG)
Идентификатор кодека : XVID
Идентификатор кодека/Подсказка : XviD
Продолжительность : 43 м. 36 с.
Битрейт : 1402 Кбит/сек
Ширина : 720 пикселей
Высота : 400 пикселей
Соотношение сторон : 16:9
Частота кадров : 23,976 (23976/1000) кадра/сек
Цветовое пространство : YUV
Субдискретизация насыщенности : 4:2:0
Битовая глубина : 8 бит
Тип развёртки : Прогрессивная
Метод сжатия : С потерями
Бит/(Пиксели*Кадры) : 0.203
Размер потока : 437 Мбайт (84%)
Библиотека кодирования : XviD 73
Аудио #1
Идентификатор : 1
Формат : MPEG Audio
Версия формата : Version 1
Профиль формата : Layer 3
Режим : Joint stereo
Расширение режима : MS Stereo
Идентификатор кодека : 55
Идентификатор кодека/Подсказка : MP3
Продолжительность : 43 м. 36 с.
Вид битрейта : Постоянный
Битрейт : 128 Кбит/сек
Каналы : 2 канала
Частота : 48,0 КГц
Метод сжатия : С потерями
Размер потока : 39,9 Мбайт (8%)
Выравнивание : Соединение по промежуткам
Продолжительность промежутка : 42 мс. (1,00 видеокадр)
Время предзагрузки промежутка : 504 мс.
Заголовок : Russian (AlexFilm)
Библиотека кодирования : LAME3.99r
Настройки программы : -m j -V 4 -q 3 -lowpass 18 -b 128
Аудио #2
Идентификатор : 2
Формат : MPEG Audio
Версия формата : Version 1
Профиль формата : Layer 3
Режим : Joint stereo
Расширение режима : MS Stereo
Идентификатор кодека : 55
Идентификатор кодека/Подсказка : MP3
Продолжительность : 43 м. 36 с.
Вид битрейта : Постоянный
Битрейт : 128 Кбит/сек
Каналы : 2 канала
Частота : 48,0 КГц
Метод сжатия : С потерями
Размер потока : 39,9 Мбайт (8%)
Выравнивание : Соединение по промежуткам
Продолжительность промежутка : 42 мс. (1,00 видеокадр)
Время предзагрузки промежутка : 504 мс.
Заголовок : English
Библиотека кодирования : LAME3.90.3
Внимание! Раздача ведётся путём добавления новых серий; при каждом добавлении создаётся новый торрент. Чтобы начать докачку новой серии, пользователям необходимо сделать следующее:
(1) остановить скачивание,
(2) удалить старый торрент у себя из клиента (старые серии удалять не надо),
(3) скачать новый торрент и запустить его у себя в клиенте вместо старого, при этом указать клиенту путь в старую папку куда и должно происходить скачивание новых серий.
Ваш клиент при этом должен произвести хеширование (проверку) старой папки (если не производит сам - помогите ему сделать это), и будет докачивать только те серии которых у вас ещё нет. Старые серии при этом не удаляются, а продолжают раздаваться!
Eсли вы уже удалили старые серии, то предотвратить повторную закачку старых серий можно, отжав галочку в соответствующих местах при запуске нового торрента. По возможности, желательно не удалять старые серии как можно дольше чтобы релизёр не столько продолжал раздавать старые серии, а смог сконцентрироваться на новых.




Скачать Слепое.пятно.Blindspot.(Сезон.02.серии.01-09.из.13).(Марк.Пеллингтон).[2016.детектив.криминал.драма.WEB-DLRip].[MVO].(AlexFilm).torrent без регистрации
Золото ЗОЛОТАЯ РАЗДАЧА! СКАЧАННОЕ НЕ ЗАСЧИТЫВАЕТСЯ! Золото
Дата: Зарегистрирован   [ Тип: внутренний ] Как тут cкачать?
MAGNET ссылка
MAGNET ссылка


Скачать .torrent

13 KB

Статус: проверено DHT
Скачан: торрент - 64 раз, раздача полностью - 0 раз
Размер: 4,55 GB
Оценка:  - (Голосов: 0)
Поблагодарили: 4
Поделиться ссылкой на эту раздачу с друзьями:
В контактеFacebookОдноклассникиTwitterLivejournalМой МирLiveinternet
 

 
Показать сообщения:    


Вы не можете начинать темы
Вы не можете отвечать на сообщения
Вы не можете редактировать свои сообщения
Вы не можете удалять свои сообщения
Вы не можете голосовать в опросах
Вы не можете прикреплять файлы к сообщениям
Вы можете скачивать файлы