Loading...
Error

Скачать Страшилы / The Frighteners (Питер Джексон) [1996, ужасы, фэнтези, комедия, HDRip] [Режиссёрская версия] [MVO] торрент без регистрации

 
Статистика раздачи
Размер:  747 MB   |    Скачан:  13 раз
Сидов:  1  [  0 KB/s  ]  
 
Автор Сообщение

Marsianka

[] 

Информация о фильме
Название: Страшилы
Оригинальное название: The Frighteners [Director's Cut]
Год выхода: 1996
Жанр: ужасы, фэнтези, комедия
Режиссер: Питер Джексон
В ролях: Майкл Дж. Фокс /Michael J. Fox/, Трини Альварадо /Trini Alvarado/, Питер Добсон /Peter Dobson/, Джон Эстин /John Astin/, Джеффри Комбс /Jeffrey Combs/, Ди Уоллес-Стоун /Dee Wallace-Stone/, Джейк Бьюзи /Jake Busey/, Чи МакБрайд /Chi McBride/, Джим Файф /Jim Fyfe/, Трой Эванс /Troy Evans/...

О фильме: Экстрасенс Фрэнк Бэннистер, который зарабатывает на жизнь тем, что за скромное вознаграждение успешно избавляет дома от полтергейста, который сам предварительно наслал, сталкивается со страшным противником — вернувшимся с того света, а вернее, задержавшимся на этом после казни, маньяком-убийцей.



Страна: Новая Зеландия, США
Продолжительность: 02:02:36
Перевод: Профессиональный (многоголосый, закадровый) "Киномания"
Субтитры: Нет

Семпл

Файл
Кодек: XviD
Качество: HDRip
Видео: 640x272 (2.35:1), 23.976 fps, XviD build 73 ~714 kbps avg, 0.17 bit/pixel
Звук: 48 kHz, MPEG Layer 3, 2 ch, ~128.00 kbps avg
Общее
Полное имя : The.Frighteners.1996.HDRip.ot.Portablius.avi
Формат : AVI
Формат/Информация : Audio Video Interleave
Размер файла : 747 Мбайт
Продолжительность : 2 ч. 2 м.
Общий поток : 852 Кбит/сек
Программа кодирования : VirtualDubMod 1.5.10.3 | www.virtualdub-fr.org || (build 2550/release)
Библиотека кодирования : VirtualDubMod build 2550/release

Видео
Идентификатор : 0
Формат : MPEG-4 Visual
Профиль формата : Advanced Simple@L5
Параметр BVOP формата : 1
Параметр QPel формата : Нет
Параметр GMC формата : Без точки перехода
Параметр матрицы формата : Выборочная
Идентификатор кодека : XVID
Идентификатор кодека/Подсказка : XviD
Продолжительность : 2 ч. 2 м.
Битрейт : 715 Кбит/сек
Ширина : 640 пикселей
Высота : 272 пикселя
Соотношение сторон : 2,35:1
Частота кадров : 23,976 (23976/1000) кадра/сек
Цветовое пространство : YUV
Субдискретизация насыщенности : 4:2:0
Битовая глубина : 8 бит
Тип развёртки : Прогрессивная
Метод сжатия : С потерями
Бит/(Пиксели*Кадры) : 0.171
Размер потока : 627 Мбайт (84%)
Библиотека кодирования : XviD 73

Аудио
Идентификатор : 1
Формат : MPEG Audio
Версия формата : Version 1
Профиль формата : Layer 3
Идентификатор кодека : 55
Идентификатор кодека/Подсказка : MP3
Продолжительность : 2 ч. 2 м.
Вид битрейта : Постоянный
Битрейт : 128 Кбит/сек
Каналы : 2 канала
Частота : 48,0 КГц
Метод сжатия : С потерями
Размер потока : 112 Мбайт (15%)
Выравнивание : Соединение по промежуткам
Продолжительность промежутка : 42 мс. (1,00 видеокадр)
Время предзагрузки промежутка : 504 мс.
Библиотека кодирования : LAME3.99r
Настройки программы : -m s -V 4 -q 2 -lowpass 17 -b 128



Скачать Страшилы.The.Frighteners.(Питер.Джексон).[1996.ужасы.фэнтези.комедия.HDRip].[Режиссёрская.версия].[MVO].torrent без регистрации
Золото ЗОЛОТАЯ РАЗДАЧА! СКАЧАННОЕ НЕ ЗАСЧИТЫВАЕТСЯ! Золото
Дата: Зарегистрирован   [ Тип: внутренний ] Как тут cкачать?
MAGNET ссылка
MAGNET ссылка


Скачать .torrent

15 KB

Статус: проверено DHT
Скачан: торрент - 13 раз, раздача полностью - 6 раз
Размер: 747 MB
Оценка:  - (Голосов: 0)
Поблагодарили: 0
Поделиться ссылкой на эту раздачу с друзьями:
В контактеFacebookОдноклассникиTwitterLivejournalМой МирLiveinternet
 

 
Показать сообщения:    


Вы не можете начинать темы
Вы не можете отвечать на сообщения
Вы не можете редактировать свои сообщения
Вы не можете удалять свои сообщения
Вы не можете голосовать в опросах
Вы не можете прикреплять файлы к сообщениям
Вы можете скачивать файлы