Loading...
Error

Скачать Все к лучшему / Радости жизни / Перемены / Better Things (Сезон 01) (Лэнс Бэнгс, Ниша Ганатра) [2016, Комедия, HDTVRip] [MVO] (Jaskier) + [Orig] торрент без регистрации

 
Статистика раздачи
Размер:  2,08 GB   |    Скачан:  145 раз
Сидов:  1  [  0 KB/s  ]  
 
Автор Сообщение

leon030982

[] 

Все к лучшему / Радости жизни / Better Things


Год выпуска: 2016
Страна: США
Жанр: Комедия
Продолжительность: ~00:22:00
Перевод: Профессиональный (многоголосый закадровый) Студия Jaskier
Субтитры: Нет

Режиссёр: Лэнс Бэнгс, Ниша Ганатра

В ролях: Памела Адлон, Ханна Аллигуд, Оливия Эдвард, Селия Имри, Мики Мэдисон, Райли Уотсон и другие

Описание: Жизнь матери-одиночки всегда сложна и сурова. Приходится делать работу за двоих, чтобы прокормить своего малыша. Героиня этого сериала Сэм не унывает, ведь на ее плечи легла большая ответственность, которая перерастает в смысл жизни. Девушка просто лишена минуты спокойствия на то, чтобы заниматься самотерзанием. Главная героиня способна прокормить и вырастить в одиночку трех чудесных дочерей. Сэм не достигла успехов в карьере, но зато в личной жизни у нее все в полнейшем порядке. Она работает не самой популярной и востребованной актрисой, однако для зрителей этого сериала Сэм станет настоящей звездой, ведь девушка всегда полна оптимизма и хорошего настроения!


Качество: HDTVRip
Формат: AVI
Видео кодек: XviD
Аудио кодек: AC3, MP3
Видео: 720x400 (16:9), 23.976 fps, ~1100kbps, ~0.137 bit/pixel
Аудио 1: Dolby AC3 48000Hz stereo 192Kbps Русский
Аудио 2: Lame MP3 48000Hz stereo 128Kbps Оригинал (Английский)

Торент обновлен! Добавлена 7-10-я серия

Код:

General
Complete name               : XXXXXXXXXXXXXXXXXXXXXxxxxxxxxxx\Better.Things.S01E01.HDTVRip.XviD.Jaskier.Rus.Eng.avi
Format                      : AVI
Format/Info                 : Audio Video Interleave
File size                   : 202 MiB
Duration                    : 22mn 1s
Overall bit rate            : 1 281 Kbps
Writing application         : VirtualDubModRus 1.5.10.2 (build 2540/release)
Writing library             : VirtualDubMod build 2540/release
Video
ID                          : 0
Format                      : MPEG-4 Visual
Format profile              : Advanced Simple@L5
Format settings, BVOP       : 1
Format settings, QPel       : No
Format settings, GMC        : No warppoints
Format settings, Matrix     : Default (H.263)
Codec ID                    : XVID
Codec ID/Hint               : XviD
Duration                    : 22mn 1s
Bit rate                    : 947 Kbps
Width                       : 720 pixels
Height                      : 400 pixels
Display aspect ratio        : 16:9
Frame rate                  : 23.976 (23976/1000) fps
Color space                 : YUV
Chroma subsampling          : 4:2:0
Bit depth                   : 8 bits
Scan type                   : Progressive
Compression mode            : Lossy
Bits/(Pixel*Frame)          : 0.137
Stream size                 : 149 MiB (74%)
Writing library             : XviD 1.2.1 (UTC 2008-12-04)
Audio #1
ID                          : 1
Format                      : AC-3
Format/Info                 : Audio Coding 3
Mode extension              : CM (complete main)
Format settings, Endianness : Big
Codec ID                    : 2000
Duration                    : 22mn 1s
Bit rate mode               : Constant
Bit rate                    : 192 Kbps
Channel(s)                  : 2 channels
Channel positions           : Front: L R
Sampling rate               : 48.0 KHz
Frame rate                  : 31.250 fps (1536 spf)
Compression mode            : Lossy
Stream size                 : 30.3 MiB (15%)
Alignment                   : Split accross interleaves
Interleave, duration        : 42 ms (1.00 video frame)
Interleave, preload duratio : 500 ms
Audio #2
ID                          : 2
Format                      : MPEG Audio
Format version              : Version 1
Format profile              : Layer 3
Codec ID                    : 55
Codec ID/Hint               : MP3
Duration                    : 22mn 1s
Bit rate mode               : Constant
Bit rate                    : 128 Kbps
Channel(s)                  : 2 channels
Sampling rate               : 48.0 KHz
Compression mode            : Lossy
Stream size                 : 20.2 MiB (10%)
Alignment                   : Aligned on interleaves
Interleave, duration        : 42 ms (1.00 video frame)
Interleave, preload duratio : 504 ms
Writing library             : LAME3.98r
Encoding settings           : -m s -V 4 -q 0 -lowpass 17 -b 128
Внимание! Раздача ведётся путём добавления новых серий; при каждом добавлении создётся новый торрент. Чтобы начать докачку новой серии, пользователям необходимо сделать следующее:
Остановить скачивание.
Удалить старый торрент у себя из клиента (старые серии удалять не надо).
Скачать новый торрент и запустить его у себя в клиенте вместо старого, при этом указать клиенту путь в старую папку куда и должно происходить скачивание новых серий.
Ваш клиент при этом должен произвести хеширование (проверку) старой папки (если не производит сам - помогите ему сделать это), и будет докачивать только те серии которых у вас ещё нет. Старые серии при этом не удаляются, а продолжают раздаваться!
Eсли вы уже удалили старые серии, то предотвратить повторную закачку старых серий можно, отжав галочку в соответсвующих местах при запуске нового торрента. По возможности, желательно не удалять старые серии как можно дольше чтобы релизёр не столько продолжал раздавать старые серии, а смог сконцентрироваться на новых.



Скачать Все.к.лучшему.Радости.жизни.Перемены.Better.Things.(Сезон.01).(Лэнс.Бэнгс.Ниша.Ганатра).[2016.Комедия.HDTVRip].[MVO].(Jaskier).+.[Orig].torrent без регистрации
Золото ЗОЛОТАЯ РАЗДАЧА! СКАЧАННОЕ НЕ ЗАСЧИТЫВАЕТСЯ! Золото
Дата: Зарегистрирован   [ Тип: внутренний ] Как тут cкачать?
MAGNET ссылка
MAGNET ссылка


Скачать .torrent

12 KB

Статус: проверено DHT
Скачан: торрент - 145 раз, раздача полностью - 2 раз
Размер: 2,08 GB
Оценка:  - (Голосов: 0)
Поблагодарили: 0
Поделиться ссылкой на эту раздачу с друзьями:
В контактеFacebookОдноклассникиTwitterLivejournalМой МирLiveinternet
 

 
Показать сообщения:    


Вы не можете начинать темы
Вы не можете отвечать на сообщения
Вы не можете редактировать свои сообщения
Вы не можете удалять свои сообщения
Вы не можете голосовать в опросах
Вы не можете прикреплять файлы к сообщениям
Вы можете скачивать файлы