Loading...
Error

Скачать Правосудие / Justified (Полный 5-ый сезон) (Джон Эвнет, Питер Уэрнер, Адам Аркин) [2014, боевик, триллер, драма, криминал, WEB-DLRip] [MVO] (Jaskier) + [Orig] торрент без регистрации

 
Статистика раздачи
Размер:  6,98 GB   |    Скачан:  3 раза
Сидов:  1  [  0 KB/s  ]  
 
Автор Сообщение

leon030982

[] 

Правосудие / Своя правда / Justified (5 сезон)


Год выпуска: 2014
Страна: США
Жанр: боевик, триллер, драма, криминал
Продолжительность: ~00:49:00
Перевод: Профессиональный (многоголосый закадровый) [студия Jaskier]

Режиссёр: Джон Эвнет, Питер Уэрнер, Адам Аркин

В ролях: Тимоти Олифант, Уолтон Гоггинс, Ник Сирси, Эрика Н. Тэйзел, Джоэль Картер, Джекоб Питтс, Натали Зи, Дэвид Мюнье, Джер Бернс, Рэймонд Дж. Бэрри

Описание: Федеральный маршал Рейлан Гивенс убил человека, не первого, и далеко не последнего. Хоть убитый и был преступником, но методы маршала Гивенса не одобряются начальством. В наказание его отправили работать в Кентукки, на родину.
Гивенс ненавидит Кентукки. К тому же, там его НЕ ждут бывшая жена; бывшие друзья, ставшие преступниками; обычные преступники, которые не любят, когда им мешают, и отец, который всегда был в неладах с законом. Конечно, у каждого из них своя правда, но федеральный маршал Рейлан Гивенс имеет в своем арсенале несколько весьма убедительных аргументов — в их числе, убийственное чувство юмора, глок и, разумеется, шляпа.

Перевод: Юлия Мейер
Роли озвучивали: Денис Строев, Сергей Пономарёв, Вячеслав Козлов, Михаил Кшиштовский и Рина Гришина


Качество: WEB-DLRip
Формат: AVI
Видео кодек: XviD
Аудио кодек: MP3
Видео: 720x400 (16:9); ~1280 Kbps; 23.976 fps; ~0,18 bpp
Аудио 1: MP3; 48 kHz; 128 Kbps; CBR; 2 ch (русский)
Аудио 2: MP3; 48 kHz; 128 Kbps; CBR; 2 ch (английский)
A Murder of Crowes
The Kids Aren't All Right
Good Intentions
Over the Mountain
Shot All to Hell
Kill the Messenger
Raw Deal
Whistle Past the Graveyard
Wrong Roads
Weight
The Toll
Starvation
Restitution
General
Complete name : D:\Видео\Cериалы\Justified\Justified.s05.WEB-DLRip.rus.eng.Jaskier\Justified.s05e01.WEB-DLRip.rus.eng.Jaskier.avi
Format : AVI
Format/Info : Audio Video Interleave
File size : 550 MiB
Duration : 49mn 34s
Overall bit rate : 1 551 Kbps
Writing application : VirtualDubMod 1.5.10.3 | www.virtualdub-fr.org || (build 2550/release)
Writing library : VirtualDubMod build 2550/release
Video
ID : 0
Format : MPEG-4 Visual
Format profile : Advanced Simple@L5
Format settings, BVOP : 2
Format settings, QPel : No
Format settings, GMC : No warppoints
Format settings, Matrix : Default (MPEG)
Codec ID : XVID
Codec ID/Hint : XviD
Duration : 49mn 34s
Bit rate : 1 281 Kbps
Width : 720 pixels
Height : 400 pixels
Display aspect ratio : 16:9
Frame rate : 23.976 fps
Color space : YUV
Chroma subsampling : 4:2:0
Bit depth : 8 bits
Scan type : Progressive
Compression mode : Lossy
Bits/(Pixel*Frame) : 0.186
Stream size : 454 MiB (83%)
Writing library : XviD 73
Audio #1
ID : 1
Format : MPEG Audio
Format version : Version 1
Format profile : Layer 3
Codec ID : 55
Codec ID/Hint : MP3
Duration : 49mn 34s
Bit rate mode : Constant
Bit rate : 128 Kbps
Channel count : 2 channels
Sampling rate : 48.0 KHz
Compression mode : Lossy
Stream size : 45.4 MiB (8%)
Alignment : Aligned on interleaves
Interleave, duration : 42 ms (1.00 video frame)
Interleave, preload duration : 504 ms
Writing library : LAME3.99r
Encoding settings : -m s -V 4 -q 0 -lowpass 17 -b 128
Audio #2
ID : 2
Format : MPEG Audio
Format version : Version 1
Format profile : Layer 3
Codec ID : 55
Codec ID/Hint : MP3
Duration : 49mn 34s
Bit rate mode : Constant
Bit rate : 128 Kbps
Channel count : 2 channels
Sampling rate : 48.0 KHz
Compression mode : Lossy
Stream size : 45.4 MiB (8%)
Alignment : Aligned on interleaves
Interleave, duration : 42 ms (1.00 video frame)
Interleave, preload duration : 504 ms
Writing library : LAME3.99r
Encoding settings : -m s -V 4 -q 0 -lowpass 17 -b 128



Скачать Правосудие.Justified.(Полный.5-ый.сезон).(Джон.Эвнет.Питер.Уэрнер.Адам.Аркин).[2014.боевик.триллер.драма.криминал.WEB-DLRip].[MVO].(Jaskier).+.[Orig].torrent без регистрации
Золото ЗОЛОТАЯ РАЗДАЧА! СКАЧАННОЕ НЕ ЗАСЧИТЫВАЕТСЯ! Золото
Дата: Зарегистрирован   [ Тип: внутренний ] Как тут cкачать?
MAGNET ссылка
MAGNET ссылка


Скачать .torrent

19 KB

Статус: проверено DHT
Скачан: торрент - 3 раз, раздача полностью - 1 раз
Размер: 6,98 GB
Оценка:  - (Голосов: 0)
Поблагодарили: 0
Поделиться ссылкой на эту раздачу с друзьями:
В контактеFacebookОдноклассникиTwitterLivejournalМой МирLiveinternet
 

 
Показать сообщения:    


Вы не можете начинать темы
Вы не можете отвечать на сообщения
Вы не можете редактировать свои сообщения
Вы не можете удалять свои сообщения
Вы не можете голосовать в опросах
Вы не можете прикреплять файлы к сообщениям
Вы можете скачивать файлы