Loading...
Error

Скачать Правосудие / Justified (Полный 6-ой сезон) (Джон Эвнет, Питер Уэрнер, Адам Аркин) [2015, боевик, триллер, драма, криминал, WEB-DLRip] [MVO] (Jaskier) + [Orig] торрент без регистрации

 
Статистика раздачи
Размер:  6,14 GB   |    Скачан:  6 раз
Сидов:  1  [  0 KB/s  ]  
 
Автор Сообщение

leon030982

[] 

Правосудие / Своя правда / Justified (6 сезон)


Год выпуска: 2015
Страна: США
Жанр: боевик, триллер, драма, криминал
Продолжительность: ~00:49:00
Перевод: Профессиональный (многоголосый закадровый) [студия Jaskier]

Режиссёр: Джон Эвнет, Питер Уэрнер, Адам Аркин

В ролях: Тимоти Олифант, Уолтон Гоггинс, Ник Сирси, Эрика Н. Тэйзел, Джоэль Картер, Джекоб Питтс, Натали Зи, Дэвид Мюнье, Джер Бернс, Рэймонд Дж. Бэрри

Описание: Федеральный маршал Рейлан Гивенс убил человека, не первого, и далеко не последнего. Хоть убитый и был преступником, но методы маршала Гивенса не одобряются начальством. В наказание его отправили работать в Кентукки, на родину.
Гивенс ненавидит Кентукки. К тому же, там его НЕ ждут бывшая жена; бывшие друзья, ставшие преступниками; обычные преступники, которые не любят, когда им мешают, и отец, который всегда был в неладах с законом. Конечно, у каждого из них своя правда, но федеральный маршал Рейлан Гивенс имеет в своем арсенале несколько весьма убедительных аргументов — в их числе, убийственное чувство юмора, глок и, разумеется, шляпа.

Перевод: Юлия Мейер
Роли озвучивали: Денис Строев, Анастасия Жаркова, Сергей Пономарёв, Таисия Тришина, Вячеслав Козлов, Михаил Кшиштовский


Качество: WEB-DLRip
Формат: AVI
Видео кодек: XviD
Аудио кодек: AC3
Видео: XviD; 720x400; ~1600 Kbps; 23.976 fps
Аудио 1: AC3; 48 kHz; 192 Kbps; CBR; 2 ch (русский)
Аудио 2: AC3; 48 kHz; 192 Kbps; CBR; 2 ch (английский)
General
Complete name : E:\Pravosudie.S06.Jaskier\Prav0sud1e.S06E01.Jaskier.WEB-DLRip.avi
Format : AVI
Format/Info : Audio Video Interleave
File size : 650 MiB
Duration : 50mn 29s
Overall bit rate : 1 800 Kbps
Writing application : VirtualDubMod 1.5.10.2 (build 2540/release)
Writing library : VirtualDubMod build 2540/release

Video
ID : 0
Format : MPEG-4 Visual
Format profile : Advanced Simple@L5
Format settings, BVOP : 2
Format settings, QPel : No
Format settings, GMC : No warppoints
Format settings, Matrix : Custom
Codec ID : XVID
Codec ID/Hint : XviD
Duration : 50mn 29s
Bit rate : 1 528 Kbps
Width : 720 pixels
Height : 400 pixels
Display aspect ratio : 16:9
Frame rate : 23.976 fps
Color space : YUV
Chroma subsampling : 4:2:0
Bit depth : 8 bits
Scan type : Progressive
Compression mode : Lossy
Bits/(Pixel*Frame) : 0.221
Stream size : 552 MiB (85%)
Writing library : XviD 1.2.1 (UTC 2008-12-04)

Audio
ID : 1
Format : AC-3
Format/Info : Audio Coding 3
Mode extension : CM (complete main)
Format settings, Endianness : Big
Codec ID : 2000
Duration : 50mn 29s
Bit rate mode : Constant
Bit rate : 192 Kbps
Channel(s) : 2 channels
Channel positions : Front: L R
Sampling rate : 44.1 KHz
Compression mode : Lossy
Stream size : 69.3 MiB (11%)
Alignment : Split accross interleaves



Скачать Правосудие.Justified.(Полный.6-ой.сезон).(Джон.Эвнет.Питер.Уэрнер.Адам.Аркин).[2015.боевик.триллер.драма.криминал.WEB-DLRip].[MVO].(Jaskier).+.[Orig].torrent без регистрации
Золото ЗОЛОТАЯ РАЗДАЧА! СКАЧАННОЕ НЕ ЗАСЧИТЫВАЕТСЯ! Золото
Дата: Зарегистрирован   [ Тип: внутренний ] Как тут cкачать?
MAGNET ссылка
MAGNET ссылка


Скачать .torrent

17 KB

Статус: проверено DHT
Скачан: торрент - 6 раз, раздача полностью - 2 раз
Размер: 6,14 GB
Оценка:  - (Голосов: 0)
Поблагодарили: 1
Поделиться ссылкой на эту раздачу с друзьями:
В контактеFacebookОдноклассникиTwitterLivejournalМой МирLiveinternet
 

 
Показать сообщения:    


Вы не можете начинать темы
Вы не можете отвечать на сообщения
Вы не можете редактировать свои сообщения
Вы не можете удалять свои сообщения
Вы не можете голосовать в опросах
Вы не можете прикреплять файлы к сообщениям
Вы можете скачивать файлы