Loading...
Error

Скачать Тайны Сильверхёйда / Jordskott (сезон 01) (Андерс Энгстрем, Хенрик Бьорн) [2015, фэнтези, триллер, драма, криминал, детектив, HDTVRip] [720p] 2х[DVO (2D, kiitos & Chertenok)]+[Swe]+[Sub Rus, Swe] торрент без регистрации

 
Статистика раздачи
Размер:  16,58 GB   |    Скачан:  14 раз
Сидов:  1  [  0 KB/s  ]  
 
Автор Сообщение

МихаНЕзатор

[] 

Название: Тайны Сильверхёйда
Оригинальное название: Jordskott
Год выхода: 2015
Жанр: фэнтези, триллер, драма, криминал, детектив, ...
Режиссер: Андерс Энгстрем, Хенрик Бьорн

В ролях: Муа Гаммель, Йёран Рагнерстам, Рикард Фошгрен, Петер Андерссон, Лия Бойсен, Энн Петрэн, Вилле Виртанен, Ваня Блумквист, Хенрик Кнутссон, Юханнес Бруст, Ханс Мусессон, Хэппи Янкель, Густав Линд, Стина Сундлёф, Юхан Паульсен, Феликс Энгстрём, Сандра Андерссон, Марианне Санд, ...

О фильме: Семь лет прошло с тех пор, как Ева потеряла дочь во время прогулки по лесу Сильверхёйд. Теперь пропал ещё один ребенок — Антон. Поиски не дали никаких результатов.
Вскоре в Сильверхёйде начинается череда необъяснимых и странных событий, и Ева вместе с местной полицией попытается разобраться во всем этом и узнать, какие тайны скрывает лес Сильверхёйд…



Страна: Швеция, Финляндия, Великобритания, Норвегия
Студия: Palladium Fiction, Sveriges Television (SVT), Actinvest
Продолжительность: 10 x ~ 58:00
Перевод:
- Любительский (двухголосый, закадровый) DeadSno & den904 (2D)
- Любительский (двухголосый, закадровый) kiitos & Chertenok

Кодек: x264
Качество: HDTVRip 720р
Видео: 1280x720 , ~2500 kbps, 25 fps
Аудио #1: AC-3, 6 ch, 448 kbps (Rus) - DVOL DeadSno & den904
Аудио #2: AC-3, 6 ch, 448 kbps (Rus) - DVOL kiitos & Chertenok
Аудио #3: AC-3, 6 ch, 448 kbps (Swe)
Субтитры: Русские, Шведские

АНОНСЫ ПОПУЛЯРНЫХ РАЗДАЧ
Общее
Уникальный идентификатор : 247910410678554944372723999617740152546 (0xBA81CEEFB49FBB6E908EAB38863B9EE2)
Полное имя : Jordskott E01 S01 2015 HDTVRip 720p DeadSno & den904 kiitos.mkv
Формат : Matroska
Версия формата : Version 2
Размер файла : 1,73 Гбайт
Продолжительность : 58 м.
Общий поток : 4224 Кбит/сек
Дата кодирования : UTC 2016-07-27 08:01:34
Программа кодирования : mkvmerge v4.0.0 ('The Stars were mine') сборка от Jun 6 2010 16:18:42
Библиотека кодирования : libebml v1.0.0 + libmatroska v1.0.0

Видео
Идентификатор : 1
Формат : AVC
Формат/Информация : Advanced Video Codec
Профиль формата : High@L4.1
Параметр CABAC формата : Да
Параметр ReFrames формата : 5 кадров
Идентификатор кодека : V_MPEG4/ISO/AVC
Продолжительность : 58 м.
Битрейт : 2796 Кбит/сек
Ширина : 1280 пикселей
Высота : 720 пикселей
Соотношение сторон : 16:9
Режим частоты кадров : Постоянный
Частота кадров : 25,000 кадров/сек
Цветовое пространство : YUV
Субдискретизация насыщенности : 4:2:0
Битовая глубина : 8 бит
Тип развёртки : Прогрессивная
Бит/(Пиксели*Кадры) : 0.121
Размер потока : 1,14 Гбайт (66%)
Библиотека кодирования : x264 core 144 r2525 40bb568
Настройки программы : cabac=1 / ref=5 / deblock=1:0:0 / analyse=0x3:0x113 / me=umh / subme=8 / psy=1 / psy_rd=1.00:0.00 / mixed_ref=1 / me_range=16 / chroma_me=1 / trellis=1 / 8x8dct=1 / cqm=0 / deadzone=21,11 / fast_pskip=1 / chroma_qp_offset=-2 / threads=24 / lookahead_threads=4 / sliced_threads=0 / nr=0 / decimate=1 / interlaced=0 / bluray_compat=0 / constrained_intra=0 / bframes=3 / b_pyramid=2 / b_adapt=2 / b_bias=0 / direct=3 / weightb=1 / open_gop=0 / weightp=2 / keyint=250 / keyint_min=25 / scenecut=40 / intra_refresh=0 / rc_lookahead=50 / rc=crf / mbtree=1 / crf=18.0 / qcomp=0.60 / qpmin=0 / qpmax=69 / qpstep=4 / ip_ratio=1.40 / aq=1:1.00
Язык : Swedish
Default : Нет
Forced : Нет
Цветовой диапазон : Limited
Коэффициенты матрицы : BT.709

Аудио #1
Идентификатор : 2
Формат : AC-3
Формат/Информация : Audio Coding 3
Расширение режима : CM (complete main)
Параметр Endianness формата : Big
Идентификатор кодека : A_AC3
Продолжительность : 58 м.
Вид битрейта : Постоянный
Битрейт : 448 Кбит/сек
Каналы : 6 каналов
Расположение каналов : Front: L C R, Side: L R, LFE
Частота : 48,0 КГц
Частота кадров : 31,250 кадров/сек (1536 spf)
Метод сжатия : С потерями
Размер потока : 188 Мбайт (11%)
Заголовок : DVOL DeadSno & den904
Язык : Russian
Default : Нет
Forced : Нет

Аудио #2
Идентификатор : 3
Формат : AC-3
Формат/Информация : Audio Coding 3
Расширение режима : CM (complete main)
Параметр Endianness формата : Big
Идентификатор кодека : A_AC3
Продолжительность : 58 м.
Вид битрейта : Постоянный
Битрейт : 448 Кбит/сек
Каналы : 6 каналов
Расположение каналов : Front: L C R, Side: L R, LFE
Частота : 48,0 КГц
Частота кадров : 31,250 кадров/сек (1536 spf)
Метод сжатия : С потерями
Размер потока : 188 Мбайт (11%)
Заголовок : DVOL kiitos & Chertenok
Язык : Russian
Default : Нет
Forced : Нет

Аудио #3
Идентификатор : 4
Формат : AC-3
Формат/Информация : Audio Coding 3
Расширение режима : CM (complete main)
Параметр Endianness формата : Big
Идентификатор кодека : A_AC3
Продолжительность : 58 м.
Вид битрейта : Постоянный
Битрейт : 448 Кбит/сек
Каналы : 6 каналов
Расположение каналов : Front: L C R, Side: L R, LFE
Частота : 48,0 КГц
Частота кадров : 31,250 кадров/сек (1536 spf)
Метод сжатия : С потерями
Размер потока : 188 Мбайт (11%)
Язык : Swedish
Default : Нет
Forced : Нет

Текст #1
Идентификатор : 5
Формат : UTF-8
Идентификатор кодека : S_TEXT/UTF8
Идентификатор кодека/Информация : UTF-8 Plain Text
Язык : Russian
Default : Нет
Forced : Нет

Текст #2
Идентификатор : 6
Формат : UTF-8
Идентификатор кодека : S_TEXT/UTF8
Идентификатор кодека/Информация : UTF-8 Plain Text
Язык : Swedish
Default : Нет
Forced : Нет



Скачать Тайны.Сильверхёйда.Jordskott.(сезон.01).(Андерс.Энгстрем.Хенрик.Бьорн).[2015.фэнтези.триллер.драма.криминал.детектив.HDTVRip].[720p].2х[DVO.(2D.kiitos.&.Chertenok)]+[Swe]+[Sub.Rus.Swe].torrent без регистрации
Золото ЗОЛОТАЯ РАЗДАЧА! СКАЧАННОЕ НЕ ЗАСЧИТЫВАЕТСЯ! Золото
Дата: Зарегистрирован   [ Тип: внутренний ] Как тут cкачать?
MAGNET ссылка
MAGNET ссылка


Скачать .torrent

85 KB

Статус: проверено DHT
Скачан: торрент - 14 раз, раздача полностью - 1 раз
Размер: 16,58 GB
Оценка:  - (Голосов: 0)
Поблагодарили: 0
Поделиться ссылкой на эту раздачу с друзьями:
В контактеFacebookОдноклассникиTwitterLivejournalМой МирLiveinternet
 

 
Показать сообщения:    


Вы не можете начинать темы
Вы не можете отвечать на сообщения
Вы не можете редактировать свои сообщения
Вы не можете удалять свои сообщения
Вы не можете голосовать в опросах
Вы не можете прикреплять файлы к сообщениям
Вы можете скачивать файлы