Loading...
Error

/ Lucifer ( 02, 01-10 22) ( , , ) [2016, , , WEB-DLRip] [MVO] (Jaskier) + [Original]

 
3,84 GB   |    :  36
1  [  0 KB/s  ]  
 

leon030982

[] 

| Lucifer

: 2016
:
: ,
: ~00:45:00
: ( ) Jaskier
:

: , ,

: , , , - , , , .

: , -, Lux. , , -



: WEB-DLRip
: AVI
: XviD, 720x400 (16:9), 23.976 fps, ~1250 kbps, ~0.133 bit/pixel
1: Dolby AC3, 48 kHz, stereo, 192 kbps
2: Lame MP3, 48 kHz, stereo, 128 kbps ()


. 10- !

:

General
Complete name : XXXXXXXXXX\Lucifer.S02E01.WEB-DLRip.XviD.Jaskier.Rus.Eng.avi
Format : AVI
Format/Info : Audio Video Interleave
File size : 393 MiB
Duration : 43mn 55s
Overall bit rate : 1 251 Kbps
Writing application : VirtualDubModRus 1.5.10.2 (build 2540/release)
Writing library : VirtualDubMod build 2540/release
Video
ID : 0
Format : MPEG-4 Visual
Format profile : Advanced Simple@L5
Format settings, BVOP : 1
Format settings, QPel : No
Format settings, GMC : No warppoints
Format settings, Matrix : Default (H.263)
Codec ID : XVID
Codec ID/Hint : XviD
Duration : 43mn 55s
Bit rate : 917 Kbps
Width : 720 pixels
Height : 400 pixels
Display aspect ratio : 16:9
Frame rate : 23.976 (23976/1000) fps
Color space : YUV
Chroma subsampling : 4:2:0
Bit depth : 8 bits
Scan type : Progressive
Compression mode : Lossy
Bits/(Pixel*Frame) : 0.133
Stream size : 288 MiB (73%)
Writing library : XviD 1.2.1 (UTC 2008-12-04)
Audio #1
ID : 1
Format : AC-3
Format/Info : Audio Coding 3
Mode extension : CM (complete main)
Format settings, Endianness : Big
Codec ID : 2000
Duration : 43mn 55s
Bit rate mode : Constant
Bit rate : 192 Kbps
Channel(s) : 2 channels
Channel positions : Front: L R
Sampling rate : 48.0 KHz
Frame rate : 31.250 fps (1536 spf)
Compression mode : Lossy
Stream size : 60.3 MiB (15%)
Alignment : Split accross interleaves
Interleave, duration : 42 ms (1.00 video frame)
Interleave, preload duratio : 500 ms
Audio #2
ID : 2
Format : MPEG Audio
Format version : Version 1
Format profile : Layer 3
Codec ID : 55
Codec ID/Hint : MP3
Duration : 43mn 55s
Bit rate mode : Constant
Bit rate : 128 Kbps
Channel(s) : 2 channels
Sampling rate : 48.0 KHz
Compression mode : Lossy
Stream size : 40.2 MiB (10%)
Alignment : Aligned on interleaves
Interleave, duration : 42 ms (1.00 video frame)
Interleave, preload duratio : 504 ms
Writing library : LAME3.98r
Encoding settings : -m s -V 4 -q 0 -lowpass 17 -b 128
! ; . , :
.
( ).
, .
() ( - ), . , !
E , , . , , .



.Lucifer.(.02..01-10..22).(......).[2016...WEB-DLRip].[MVO].(Jaskier).+.[Original].torrent
  ! ! 
:   [ : ] c?
MAGNET
MAGNET


.torrent

20 KB

: DHT
: - 36 , - 0
: 3,84 GB
4 (: 1)
: 2
:
 FacebookTwitterLivejournal Liveinternet
 

 

leon030982

[] 

:

9-
 
: