Loading...
Error

Скачать Американская история ужасов / American Horror Story (сезон 06) (Брэдли Букер и др.) [2016, ужасы, фантастика, триллер, драма, детектив, HDTVRip] [720p] [MVO (Jaskier)]+[Eng] торрент без регистрации

 
Статистика раздачи
Размер:  13,19 GB   |    Скачан:  130 раз
Сидов:  1  [  0 KB/s  ]  
 
Автор Сообщение

МихаНЕзатор

[] 

Информация о фильме
Название: Американская история ужасов: Мой кошмар в Роаноке
Оригинальное название: American Horror Story: My Roanoke Nightmare
Год выхода: 2016
Жанр: Ужасы, фэнтези, триллер, драма
Режиссер: Брэдли Букер, Майкл Аппендаль, Альфонсо Гомез-Рейон, Майкл Леманн

В ролях: Сара Полсон, Анджела Бассетт, Куба Гудинг-мл., Эван Питерс, Денис О'Харе, Кэти Бэйтс, Финн Уиттрок, Уэс Бентли, Мэтт Бомер, Леди Гага, Шайенн Джексон, Лесли Джордан, Лили Рэйб, Адина Портер, Андрэ Холланд

О фильме: Сюжет нового сезона сериала строится на 2 временных линиях – в настоящем и американском прошлом эпохи колонизации. Одним из событий, задействованных в сериале, является таинственное исчезновение колонистов, пропавших на острове Кроатоан в конце 16 века.



Страна: США
Продолжительность: ~00:40:00
Перевод: Профессиональный (многоголосый закадровый) студия Jaskier

Перевод: Александр Митраков

Файл
Кодек: AVC
Качество: WEB-DL 720, HDTVRip 720 (2 серия)
Видео: AVC, 1280x720 (16:9), 23.976 fps, ~2900kbps ~0.122 bit/pixel, 2 серия: MPEG4 Video (H264) 1280x720 23.976fps ~3200kbps ~0.146 bit/pixel
Аудио 1 (русская дорожка): AC3, 48 kHz, 2 ch, 192 kbps
Аудио 2 (оригинал): AC3, 48 kHz, 6 ch, 384 kbps

АНОНСЫ ПОПУЛЯРНЫХ РАЗДАЧ


Торрент обновлён, добавлена 10-я серия!
General
Unique ID : 172255107838297447017750510729410778392 (0x81972084C5AEB895BB346DA402AA1518)
Complete name : Z:HDAmerican Horror Story. My Roanoke Nightmare (WEB-DL l 720p l Jaskier)American.Horror.Story.S06E02.720p.HDTVRip.DD5.1.x264-Jaskier.mkv
Format : Matroska
Format version : Version 2
File size : 1.05 GiB
Duration : 38mn 46s
Overall bit rate : 3 889 Kbps
Encoded date : UTC 2016-09-22 21:06:27
Writing application : mkvmerge v5.4.0 ('Piper') built on Mar 10 2012 13:34:39
Writing library : libebml v1.2.3 + libmatroska v1.3.0

Video
ID : 1
Format : AVC
Format/Info : Advanced Video Codec
Format profile : High@L4.1
Format settings, CABAC : Yes
Format settings, ReFrames : 5 frames
Codec ID : V_MPEG4/ISO/AVC
Duration : 38mn 46s
Bit rate : 3 235 Kbps
Width : 1 280 pixels
Height : 720 pixels
Display aspect ratio : 16:9
Frame rate : 23.976 fps
Color space : YUV
Chroma subsampling : 4:2:0
Bit depth : 8 bits
Scan type : Progressive
Bits/(Pixel*Frame) : 0.146
Stream size : 897 MiB (83%)
Writing library : x264 core 148 r2705 3f5ed56
Encoding settings : cabac=1 / ref=5 / deblock=1:0:0 / analyse=0x3:0x113 / me=umh / subme=8 / psy=1 / psy_rd=1.00:0.00 / mixed_ref=1 / me_range=16 / chroma_me=1 / trellis=1 / 8x8dct=1 / cqm=0 / deadzone=21,11 / fast_pskip=1 / chroma_qp_offset=-2 / threads=22 / lookahead_threads=3 / sliced_threads=0 / nr=0 / decimate=1 / interlaced=0 / bluray_compat=0 / constrained_intra=0 / bframes=3 / b_pyramid=2 / b_adapt=2 / b_bias=0 / direct=3 / weightb=1 / open_gop=0 / weightp=2 / keyint=250 / keyint_min=23 / scenecut=40 / intra_refresh=0 / rc_lookahead=50 / rc=crf / mbtree=1 / crf=18.0 / qcomp=0.60 / qpmin=0 / qpmax=69 / qpstep=4 / ip_ratio=1.40 / aq=1:1.00
Default : Yes
Forced : No
Matrix coefficients : BT.709-5, BT.1361, IEC 61966-2-4 709, SMPTE RP177

Audio #1
ID : 2
Format : AC-3
Format/Info : Audio Coding 3
Mode extension : CM (complete main)
Format settings, Endianness : Big
Codec ID : A_AC3
Duration : 38mn 46s
Bit rate mode : Constant
Bit rate : 192 Kbps
Channel(s) : 2 channels
Channel positions : Front: L R
Sampling rate : 48.0 KHz
Bit depth : 16 bits
Compression mode : Lossy
Stream size : 53.3 MiB (5%)
Language : Russian
Default : No
Forced : Yes

Audio #2
ID : 3
Format : AC-3
Format/Info : Audio Coding 3
Mode extension : CM (complete main)
Format settings, Endianness : Big
Codec ID : A_AC3
Duration : 38mn 46s
Bit rate mode : Constant
Bit rate : 384 Kbps
Channel(s) : 6 channels
Channel positions : Front: L C R, Side: L R, LFE
Sampling rate : 48.0 KHz
Bit depth : 16 bits
Compression mode : Lossy
Stream size : 107 MiB (10%)
Default : Yes
Forced : No



Скачать Американская.история.ужасов.American.Horror.Story.(сезон.06).(Брэдли.Букер.и.др.).[2016.ужасы.фантастика.триллер.драма.детектив.HDTVRip].[720p].[MVO.(Jaskier)]+[Eng].torrent без регистрации
Золото ЗОЛОТАЯ РАЗДАЧА! СКАЧАННОЕ НЕ ЗАСЧИТЫВАЕТСЯ! Золото
Дата: Зарегистрирован   [ Тип: внутренний ] Как тут cкачать?
MAGNET ссылка
MAGNET ссылка


Скачать .torrent

35 KB

Статус: проверено DHT
Скачан: торрент - 130 раз, раздача полностью - 0 раз
Размер: 13,19 GB
Оценка:  - (Голосов: 0)
Поблагодарили: 0
Поделиться ссылкой на эту раздачу с друзьями:
В контактеFacebookОдноклассникиTwitterLivejournalМой МирLiveinternet
 

 
Показать сообщения:    


Вы не можете начинать темы
Вы не можете отвечать на сообщения
Вы не можете редактировать свои сообщения
Вы не можете удалять свои сообщения
Вы не можете голосовать в опросах
Вы не можете прикреплять файлы к сообщениям
Вы можете скачивать файлы