Loading...
Error

Скачать Американская история ужасов / American Horror Story (сезон 06) (Брэдли Букер и др.) [2016, ужасы, фантастика, триллер, драма, детектив, WEBRip] [720p] [MVO (OmskBird)]+[Eng]+[Sub Rus] торрент без регистрации

 
Статистика раздачи
Размер:  13,51 GB   |    Скачан:  138 раз
Сидов:  1  [  0 KB/s  ]  
 
Автор Сообщение

МихаНЕзатор

[] 

Информация о фильме
Название: Американская история ужасов
Оригинальное название: American Horror Story
Год выхода: 2016
Жанр: Драма, Ужасы, Триллер
Режиссер: Брэдли Букер, Майкл Аппендаль, Альфонсо Гомез-Рейон, Майкл Леманн / Bradley Buecker, Micha

В ролях: Леди Гага, Эван Питерс, Джессика Лэнг, Лили Рэйб, Фрэнсис Конрой, Сара Полсон, Таисса Фармига, Дэнис О`Харе, Закари Куинто, Дилан МакДермотт, Джэми Брюэр, Кэти Бэйтс, Джозеф Файнс, Лиззи Брошере, Эмма Робертс, Джеймс Кромуэлл, Конни Бриттон, Анджела Бассетт, Габури Сидибе, Кейт Мара

О фильме: «Американская история ужасов», созданная и спродюсированная Райаном Мёрфи и Брэдом Фалчуком, запала в душу огромному числу ценителей жанра хоррор по всему миру. Сюжет сериала строится вокруг классических для американского хоррора тем (дом с привидениями, цирк уродов, психиатрическая лечебница и др.). Каждый сезон посвящен отдельной цепочке событий, от которых бегут мурашки по коже и в страхе замирает сердце. От чего побегут мурашки и замрет сердце в шестом сезоне сериала, не узнаете, пока не посмотрите.



Релиз от: GrandFather61

Страна: США
Продолжительность: ~ 00:45:00 серия
Перевод 1: Любительский (многоголосый закадровый) OmskBird

Файл
Кодек: MPEG-4 AVC/H.264
Качество: WEBRip 720p
Видео: AVC, ~4500Кбит/сек, 1280x720 (1.778), 23.976 кадр/сек, 0.125 бит/пиксели
Звук:
Аудио rus: AC-3, 3/2 (L,C,R,l,r) + LFE ch, 48,0 КГц, 640 Кбит/сек - OmskBird
Аудио eng: AC-3, 3/2 (L,C,R,l,r) + LFE ch, 48,0 КГц, 640 Кбит/сек
Субтитры: английские

АНОНСЫ ПОПУЛЯРНЫХ РАЗДАЧ


Торрент обновлён, добавлена 10-я серия!

Релиз-группа: OmskBird
Релиз подготовил:Grandfather61
Роли озвучивали: Алексей Гнеушев, Павел Ярощик, Владислав Данилов, Ольга Федорова, Анастасия Флигина
Перевод: Татьяна Масаковская
Звукорежиссер: Павел Квентов
Постер: Ксения Просветова

General
Unique ID : 222524226776774007842616657466364418035 (0xA7689B6F7FECC45584041A38FA0657F3)
Complete name : G:FilmsAmerican.Horror.Story.S06.720p.WEBRipAmerican.Horror.Story.S06E01.720p.WEBRip.OmskBird.mkv
Format : Matroska
Format version : Version 4 / Version 2
File size : 1.26 GiB
Duration : 44mn 37s
Overall bit rate mode : Variable
Overall bit rate : 4 043 Kbps
Encoded date : UTC 2016-09-16 06:15:32
Writing application : mkvmerge v9.4.0 ('Knurl') 64bit
Writing library : libebml v1.3.4 + libmatroska v1.4.5

Video
ID : 1
Format : AVC
Format/Info : Advanced Video Codec
Format profile : High@L3.1
Format settings, CABAC : Yes
Format settings, ReFrames : 5 frames
Codec ID : V_MPEG4/ISO/AVC
Duration : 44mn 37s
Bit rate mode : Variable
Bit rate : 2 761 Kbps
Maximum bit rate : 4 500 Kbps
Width : 1 280 pixels
Height : 720 pixels
Display aspect ratio : 16:9
Frame rate mode : Constant
Frame rate : 23.976 (24000/1001) fps
Color space : YUV
Chroma subsampling : 4:2:0
Bit depth : 8 bits
Scan type : Progressive
Bits/(Pixel*Frame) : 0.125
Stream size : 881 MiB (68%)
Language : English
Default : Yes
Forced : No
Color range : Limited
Color primaries : BT.709
Transfer characteristics : BT.709
Matrix coefficients : BT.709

Audio #1
ID : 2
Format : AC-3
Format/Info : Audio Coding 3
Mode extension : CM (complete main)
Format settings, Endianness : Big
Codec ID : A_AC3
Duration : 44mn 37s
Bit rate mode : Constant
Bit rate : 640 Kbps
Channel(s) : 6 channels
Channel positions : Front: L C R, Side: L R, LFE
Sampling rate : 48.0 KHz
Frame rate : 31.250 fps (1536 spf)
Compression mode : Lossy
Stream size : 204 MiB (16%)
Title : OmskBird 5.1
Language : Russian
Default : Yes
Forced : No

Audio #2
ID : 3
Format : AC-3
Format/Info : Audio Coding 3
Mode extension : CM (complete main)
Format settings, Endianness : Big
Codec ID : A_AC3
Duration : 44mn 37s
Bit rate mode : Constant
Bit rate : 640 Kbps
Channel(s) : 6 channels
Channel positions : Front: L C R, Side: L R, LFE
Sampling rate : 48.0 KHz
Frame rate : 31.250 fps (1536 spf)
Compression mode : Lossy
Stream size : 204 MiB (16%)
Title : original 5.1
Language : English
Default : No
Forced : No

Text
ID : 4
Format : UTF-8
Codec ID : S_TEXT/UTF8
Codec ID/Info : UTF-8 Plain Text
Duration : 44mn 34s
Bit rate : 55 bps
Count of elements : 695
Stream size : 18.2 KiB (0%)
Language : English
Default : No
Forced : No

Menu
00:00:00.000 : en:FX
00:00:19.000 : en:Introduction
00:01:07.000 : en:Shelby and Matt run into trouble in L.A.
00:04:26.000 : en:Shelby and Matt move out east
00:06:02.000 : en:Shelby and Matt buy a house
00:07:32.000 : en:Break
00:07:36.000 : en:Matt and Shelby try to settle in the house
00:12:04.000 : en:Shelby sees things while Matt is gone
00:17:23.000 : en:Break
00:17:26.000 : en:Matt rushes home
00:20:05.000 : en:Matt sets up security cameras, Matt's sister comes to stay
00:25:09.000 : en:Shelby and Lee investigate noises in the house
00:29:49.000 : en:Break
00:29:53.000 : en:A mob visits the house while Matt is away
00:33:06.000 : en:Shelby and Lee hide in the basement
00:34:58.000 : en:Break
00:35:01.000 : en:Matt comes home
00:37:30.000 : en:Shelby leaves the house
00:41:25.000 : en:End Credits
00:43:03.000 : en:FX



Скачать Американская.история.ужасов.American.Horror.Story.(сезон.06).(Брэдли.Букер.и.др.).[2016.ужасы.фантастика.триллер.драма.детектив.WEBRip].[720p].[MVO.(OmskBird)]+[Eng]+[Sub.Rus].torrent без регистрации
Золото ЗОЛОТАЯ РАЗДАЧА! СКАЧАННОЕ НЕ ЗАСЧИТЫВАЕТСЯ! Золото
Дата: Зарегистрирован   [ Тип: внутренний ] Как тут cкачать?
MAGNET ссылка
MAGNET ссылка


Скачать .torrent

35 KB

Статус: проверено DHT
Скачан: торрент - 138 раз, раздача полностью - 0 раз
Размер: 13,51 GB
Оценка:  - (Голосов: 0)
Поблагодарили: 0
Поделиться ссылкой на эту раздачу с друзьями:
В контактеFacebookОдноклассникиTwitterLivejournalМой МирLiveinternet
 

 
Показать сообщения:    


Вы не можете начинать темы
Вы не можете отвечать на сообщения
Вы не можете редактировать свои сообщения
Вы не можете удалять свои сообщения
Вы не можете голосовать в опросах
Вы не можете прикреплять файлы к сообщениям
Вы можете скачивать файлы