Loading...
Error

Скачать Американская история ужасов / American Horror Story (сезон 06) (Брэдли Букер и др.) [2016, ужасы, фантастика, триллер, драма, детектив, WEBRip] MVO (OmskBird)+[Eng] торрент без регистрации

 
Статистика раздачи
Размер:  7,96 GB   |    Скачан:  133 раза

Полного источника не было: 25 минут

 
Автор Сообщение

МихаНЕзатор

[] 

Информация о фильме
Название: Американская история ужасов
Оригинальное название: American Horror Story
Год выхода: 2016
Жанр: Драма, Ужасы, Триллер
Режиссер: Брэдли Букер, Майкл Аппендаль, Альфонсо Гомез-Рейон, Майкл Леманн / Bradley Buecker, Micha

В ролях: Леди Гага, Эван Питерс, Джессика Лэнг, Лили Рэйб, Фрэнсис Конрой, Сара Полсон, Таисса Фармига, Дэнис О`Харе, Закари Куинто, Дилан МакДермотт, Джэми Брюэр, Кэти Бэйтс, Джозеф Файнс, Лиззи Брошере, Эмма Робертс, Джеймс Кромуэлл, Конни Бриттон, Анджела Бассетт, Габури Сидибе, Кейт Мара

О фильме: «Американская история ужасов», созданная и спродюсированная Райаном Мёрфи и Брэдом Фалчуком, запала в душу огромному числу ценителей жанра хоррор по всему миру. Сюжет сериала строится вокруг классических для американского хоррора тем (дом с привидениями, цирк уродов, психиатрическая лечебница и др.). Каждый сезон посвящен отдельной цепочке событий, от которых бегут мурашки по коже и в страхе замирает сердце. От чего побегут мурашки и замрет сердце в шестом сезоне сериала, не узнаете, пока не посмотрите.



Страна: США
Продолжительность: ~ 00:45:00 серия
Перевод 1: Любительский (многоголосый закадровый) OmskBird

Файл
Кодек: XviD
Качество: WEBRip
Видео: 720x400 (1.80:1), 23.976 fps, XviD MPEG-4 ~2161 kbps avg, 0.31 bit/pixel
Звук:
Аудио rus: AC-3, 3/2 (L,C,R,l,r) + LFE ch, 48,0 КГц, 640 Кбит/сек - OmskBird
Аудио eng: AC-3, 3/2 (L,C,R,l,r) + LFE ch, 48,0 КГц, 640 Кбит/сек
Субтитры: отсутствуют

АНОНСЫ ПОПУЛЯРНЫХ РАЗДАЧ


Торрент обновлён, добавлена 10-я серия!

Релиз-группа: OmskBird
Релиз подготовил:Grandfather61
Роли озвучивали: Алексей Гнеушев, Павел Ярощик, Владислав Данилов, Ольга Федорова, Анастасия Флигина
Перевод: Татьяна Масаковская
Звукорежиссер: Павел Квентов
Постер: Ксения Просветова

General
Complete name : G:FilmsAmerican.Horror.Story.S06.400p.WEBRipAmerican.Horror.Story.S06E01.WEBRip.OmskBird.avi
Format : AVI
Format/Info : Audio Video Interleave
File size : 1.08 GiB
Duration : 44mn 37s
Overall bit rate : 3 456 Kbps
Writing application : VirtualDubMod 1.5.10.3 (build 2550/release)
Writing library : VirtualDubMod build 2550/release

Video
ID : 0
Format : MPEG-4 Visual
Format profile : Advanced Simple@L5
Format settings, BVOP : 1
Format settings, QPel : No
Format settings, GMC : No warppoints
Format settings, Matrix : Default (MPEG)
Codec ID : XVID
Codec ID/Hint : XviD
Duration : 44mn 37s
Bit rate : 2 162 Kbps
Width : 720 pixels
Height : 400 pixels
Display aspect ratio : 16:9
Frame rate : 23.976 (23976/1000) fps
Color space : YUV
Chroma subsampling : 4:2:0
Bit depth : 8 bits
Scan type : Progressive
Compression mode : Lossy
Bits/(Pixel*Frame) : 0.313
Stream size : 690 MiB (63%)
Writing library : XviD 73

Audio #1
ID : 1
Format : AC-3
Format/Info : Audio Coding 3
Mode extension : CM (complete main)
Format settings, Endianness : Big
Codec ID : 2000
Duration : 44mn 37s
Bit rate mode : Constant
Bit rate : 640 Kbps
Channel(s) : 6 channels
Channel positions : Front: L C R, Side: L R, LFE
Sampling rate : 48.0 KHz
Frame rate : 31.250 fps (1536 spf)
Compression mode : Lossy
Stream size : 204 MiB (19%)
Alignment : Split accross interleaves
Interleave, duration : 42 ms (1.00 video frame)
Interleave, preload duration : 500 ms

Audio #2
ID : 2
Format : AC-3
Format/Info : Audio Coding 3
Mode extension : CM (complete main)
Format settings, Endianness : Big
Codec ID : 2000
Duration : 44mn 37s
Bit rate mode : Constant
Bit rate : 640 Kbps
Channel(s) : 6 channels
Channel positions : Front: L C R, Side: L R, LFE
Sampling rate : 48.0 KHz
Frame rate : 31.250 fps (1536 spf)
Compression mode : Lossy
Stream size : 204 MiB (19%)
Alignment : Split accross interleaves
Interleave, duration : 42 ms (1.00 video frame)
Interleave, preload duration : 500 ms



Скачать Американская.история.ужасов.American.Horror.Story.(сезон.06).(Брэдли.Букер.и.др.).[2016.ужасы.фантастика.триллер.драма.детектив.WEBRip].MVO.(OmskBird)+[Eng].torrent без регистрации
Золото ЗОЛОТАЯ РАЗДАЧА! СКАЧАННОЕ НЕ ЗАСЧИТЫВАЕТСЯ! Золото
Дата: Зарегистрирован   [ Тип: внутренний ] Как тут cкачать?
MAGNET ссылка
MAGNET ссылка


Скачать .torrent

22 KB

Статус: проверено DHT
Скачан: торрент - 133 раз, раздача полностью - 1 раз
Размер: 7,96 GB
Оценка:  - (Голосов: 0)
Поблагодарили: 0
Поделиться ссылкой на эту раздачу с друзьями:
В контактеFacebookОдноклассникиTwitterLivejournalМой МирLiveinternet
 

 
Показать сообщения:    


Вы не можете начинать темы
Вы не можете отвечать на сообщения
Вы не можете редактировать свои сообщения
Вы не можете удалять свои сообщения
Вы не можете голосовать в опросах
Вы не можете прикреплять файлы к сообщениям
Вы можете скачивать файлы