Loading...
Error

Скачать Спартак / Spartacus (сезоны 01-04) (Джесси Уарн и др.) [2010–2013, боевик, драма, приключения, биография, история, BDRip-HEVC] [1080p] [MVO (LostFilm)] торрент без регистрации

 
Статистика раздачи
Размер:  47,82 GB   |    Скачан:  14 раз
Сидов:  1  [  0 KB/s  ]  
 
Автор Сообщение

МихаНЕзатор

[] 



Кровь и песок / Blood and Sand Боги арены / Gods of the Arena

Месть / Vengeance Война проклятых / War of the Damned

Страна: США
Производство: Starz Media, Starz Productions
Год выпуска: 2010–2013
Жанр: боевик, драма, приключения, биография, история
Режиссеры: Джесси Уарн, Майкл Херст, Рик Джейкобсон
Авторы сценария: Стивен С. ДеНайт, Брент Флетчер, Аарон Хелбинг

В ролях: Энди Уитфилд, Лиам МакИнтайр, Ману Беннетт, Дастин Клер, Дэниел Фьюрригал, Ник Е. Тарабэй, Джон Ханна, Люси Лоулесс, Вива Бьянка, Питер Менса

Описание: «Спартак» — это жесткий и выразительный рассказ о самом знаменитом из римских гладиаторов. Спартака разлучили с любовью всей его жизни и заставили выходить на арену, где смерть — лучшее развлечение для толпы. Спартак должен бороться за выживание, подружиться с врагами, и усвоить политику нового мира жестокости, секса и славы. Его будут соблазнять властью и изводить местью. Но его страсть даст ему силы преодолеть все испытания в этой истории о смерти, чести и стойкости...

Дата премьеры (мир): 22 января 2010



Релиз от: Medivh (gmnet)

Сезоны: 1-4
Серии: 1-39 (из 39)
Продолжительность: 39х ~00:55:00
Перевод: Профессиональный (многоголосый, закадровый) | LostFilm
Субтитры: нет

Качество: BDRip HEVC 1080p
Формат: МР4
Видео кодек: HEVC
Аудио кодек: ААС
Видео: 1920x1080 (16:9), 23.976 fps,MPEG-4 HEVC ~3000 kbps
Аудио: 48.0 kHz, Advanced Audio Codec LC, 2/0 (L,R) ch, ~192 kbps avg

АНОНСЫ ПОПУЛЯРНЫХ РАЗДАЧ

*H.265/HEVC (High Efficiency Video Coding) - это новый стандарт кодирования видео.
*Рипы в фомате HEVC, в настоящее время не поддерживается большинством аппаратных проигрывателей.
*Для корректного воспроизведения может потребоваться обновление ПО.
*Стандарт H.265/HEVC является логическим продолжением стандарта H.264/AVC (Advanced Video Coding), и характеризуется более эффективными алгоритмами сжатия, а также поддержкой высокого разрешения вплоть до 8K UHD (8192x4320). Первая версия стандарта H.265 была опубликована в начале 2013 года.

Формат : MPEG-4
Профиль формата : Base Media
Идентификатор кодека : isom
Размер файла : 1,21 Гбайт
Продолжительность : 54 м.
Режим общего битрейта : Переменный
Общий поток : 3158 Кбит/сек
Программа кодирования : Lavf55.37.101

Видео
Идентификатор : 1
Формат : HEVC
Формат/Информация : High Efficiency Video Coding
Профиль формата : Main@L4@Main
Идентификатор кодека : hev1
Идентификатор кодека/Информация : High Efficiency Video Coding
Продолжительность : 54 м.
Битрейт : 2987 Кбит/сек
Ширина : 1920 пикселей
Высота : 1080 пикселей
Соотношение сторон : 16:9
Режим частоты кадров : Постоянный
Частота кадров : 23,976 кадра/сек
Цветовое пространство : YUV
Субдискретизация насыщенности : 4:2:0
Битовая глубина : 8 бит
Тип развёртки : Прогрессивная
Бит/(Пиксели*Кадры) : 0.060
Размер потока : 1,15 Гбайт (95%)

Аудио
Идентификатор : 2
Формат : AAC
Формат/Информация : Advanced Audio Codec
Профиль формата : LC
Идентификатор кодека : 40
Продолжительность : 54 м.
Вид битрейта : Переменный
Битрейт : 165 Кбит/сек
Максимальный битрейт : 192 Кбит/сек
Каналы : 2 канала
Расположение каналов : Front: L R
Частота : 48,0 КГц
Метод сжатия : С потерями
Размер потока : 65,0 Мбайт (5%)
Язык : Russian



Скачать Спартак.Spartacus.(сезоны.01-04).(Джесси.Уарн.и.др.).[2010–2013.боевик.драма.приключения.биография.история.BDRip-HEVC].[1080p].[MVO.(LostFilm)].torrent без регистрации
Золото ЗОЛОТАЯ РАЗДАЧА! СКАЧАННОЕ НЕ ЗАСЧИТЫВАЕТСЯ! Золото
Дата: Зарегистрирован   [ Тип: внутренний ] Как тут cкачать?
MAGNET ссылка
MAGNET ссылка


Скачать .torrent

63 KB

Статус: проверено DHT
Скачан: торрент - 14 раз, раздача полностью - 18 раз
Размер: 47,82 GB
Оценка:  - (Голосов: 0)
Поблагодарили: 2
Поделиться ссылкой на эту раздачу с друзьями:
В контактеFacebookОдноклассникиTwitterLivejournalМой МирLiveinternet
 

 
Показать сообщения:    


Вы не можете начинать темы
Вы не можете отвечать на сообщения
Вы не можете редактировать свои сообщения
Вы не можете удалять свои сообщения
Вы не можете голосовать в опросах
Вы не можете прикреплять файлы к сообщениям
Вы можете скачивать файлы