Loading...
Error

Скачать Почему мама в моей постели? / Pourquoi maman est dans mon lit? (Патрик Малакян) [1994, комедия, DVDRip] [VO (Семен Ващенко)]+[Sub]x3 торрент без регистрации

 
Статистика раздачи
Размер:  1,49 GB   |    Скачан:  3 раза
Сидов:  1  [  0 KB/s  ]  
 
Автор Сообщение

Marsianka

[] 

Информация о фильме
Название: Почему мама в моей постели?
Оригинальное название: Pourquoi maman est dans mon lit?
Год выхода: 1994
Жанр: комедия
Режиссер: Патрик Малакян
В ролях: Жерар Клейн, Мари-Франс Пизье, Жан-Мишель Дюпуа, Консуэло Де Хэвиленд, Изабель Нанти, Бенжамен Шевийяр, Лиза Мартино, Жан Дарье, Софи Демаре, Натали Курваль

О фильме:
Юный Антуан входит в пубертатный период. Желая самоутвердиться, он крадёт куртку из магазина. Думая, что причиной проступка сына является нехватка денег на "карманные расходы", его мать устраивается на работу. Успешно делая карьеру, она вскоре начинает зарабатывать больше мужа, что приводит к конфронтации в семье. Мальчик не находит ничего лучше, чем повторить сделанное, чтобы всё стало как раньше.



Производство: Франция / Gaumont, K'Ien Productions, Studio Canal, TF1 Films Production
Продолжительность: 01:28:30
Перевод: любительский (одноголосый закадровый) [Семен Ващенко]

Файл
Качество: DVDRip
Формат: AVI
Видео: XviD, 720x384 (1.85:1), 25.000 fps, 2013 kbps, 0.291 bit/pixel
Аудио #1: русский, AC3 2.0, 48 kHz, 192 kbps
Аудио #2: французский, AC3 2.0, 48 kHz, 192 kbps
Субтитры: русские [Дмитрий Дулов], английские, французские внешние, SRT
Формат : AVI
Формат/Информация : Audio Video Interleave
Размер файла : 1,49 Гбайт
Продолжительность : 1 ч. 28 м.
Общий поток : 2412 Кбит/сек
Программа кодирования : VirtualDubModRus 1.5.10.2 (build 2542/release)
Библиотека кодирования : VirtualDubMod build 2542/release

Видео
Идентификатор : 0
Формат : MPEG-4 Visual
Профиль формата : Advanced Simple@L5
Параметр BVOP формата : 1
Параметр QPel формата : Нет
Параметр GMC формата : Без точки перехода
Параметр матрицы формата : Выборочная
Идентификатор кодека : XVID
Идентификатор кодека/Подсказка : XviD
Продолжительность : 1 ч. 28 м.
Битрейт : 2013 Кбит/сек
Ширина : 720 пикселей
Высота : 384 пикселя
Соотношение сторон : 1,85:1
Частота кадров : 25,000 кадров/сек
Цветовое пространство : YUV
Субдискретизация насыщенности : 4:2:0
Битовая глубина : 8 бит
Тип развёртки : Прогрессивная
Метод сжатия : С потерями
Бит/(Пиксели*Кадры) : 0.291
Размер потока : 1,24 Гбайт (83%)
Библиотека кодирования : XviD 64

Аудио #1
Идентификатор : 1
Формат : AC-3
Формат/Информация : Audio Coding 3
Расширение режима : CM (complete main)
Параметр Endianness формата : Big
Идентификатор кодека : 2000
Продолжительность : 1 ч. 28 м.
Вид битрейта : Постоянный
Битрейт : 192 Кбит/сек
Каналы : 2 канала
Расположение каналов : Front: L R
Частота : 48,0 КГц
Метод сжатия : С потерями
Размер потока : 122 Мбайт (8%)
Выравнивание : Разделение по промежуткам
Продолжительность промежутка : 40 мс. (1,00 видеокадр)
Время предзагрузки промежутка : 500 мс.

Аудио #2
Идентификатор : 2
Формат : AC-3
Формат/Информация : Audio Coding 3
Расширение режима : CM (complete main)
Параметр Endianness формата : Big
Идентификатор кодека : 2000
Продолжительность : 1 ч. 28 м.
Вид битрейта : Постоянный
Битрейт : 192 Кбит/сек
Каналы : 2 канала
Расположение каналов : Front: L R
Частота : 48,0 КГц
Метод сжатия : С потерями
Размер потока : 122 Мбайт (8%)
Выравнивание : Разделение по промежуткам
Продолжительность промежутка : 40 мс. (1,00 видеокадр)
Время предзагрузки промежутка : 500 мс.
Релиз от:



Скачать Почему.мама.в.моей.постели?.Pourquoi.maman.est.dans.mon.lit?.(Патрик.Малакян).[1994.комедия.DVDRip].[VO.(Семен.Ващенко)]+[Sub]x3.torrent без регистрации
Золото ЗОЛОТАЯ РАЗДАЧА! СКАЧАННОЕ НЕ ЗАСЧИТЫВАЕТСЯ! Золото
Дата: Зарегистрирован   [ Тип: внутренний ] Как тут cкачать?
MAGNET ссылка
MAGNET ссылка


Скачать .torrent

16 KB

Статус: проверено DHT
Скачан: торрент - 3 раз, раздача полностью - 1 раз
Размер: 1,49 GB
Оценка:  - (Голосов: 0)
Поблагодарили: 2
Поделиться ссылкой на эту раздачу с друзьями:
В контактеFacebookОдноклассникиTwitterLivejournalМой МирLiveinternet
 

 
Показать сообщения:    


Вы не можете начинать темы
Вы не можете отвечать на сообщения
Вы не можете редактировать свои сообщения
Вы не можете удалять свои сообщения
Вы не можете голосовать в опросах
Вы не можете прикреплять файлы к сообщениям
Вы можете скачивать файлы