Loading...
Error

Скачать Обед в пятницу вечером / Friday Night Dinner (сезон 04) (Стив Бенделак) [2016, комедия, ситком, HDTV] [720p] [DVO (NEON Studio)] торрент без регистрации

 
Статистика раздачи
Размер:  3,52 GB   |    Скачан:  3 раза
Сидов:  1  [  0 KB/s  ]  
 
Автор Сообщение

МихаНЕзатор

[] 

Название: Обед в пятницу вечером
Оригинальное название: Friday Night Dinner
Год выхода: 2016
Жанр: комедия, ситком
Режиссер: Стив Бенделак

В ролях: Тэмсин Грег, Саймон Бёрд, Том Розенталь, Марк Хип, Пол Риттер, Мэттью Холнесс, Фрэнсис Кука, Пол Макнелли и др.

Описание сериала: Каждую пятницу двадцати-с-чем-то-летние братья Адам и Джонни Гудман возвращаются в родительский дом на семейный обед. Братьям эти еженедельные встречи представляются событием раздражающим, хоть и необходимым — необходимым, потому что их всё же накормят, а раздражающим, поскольку им предстоит провести вечер с отцом и матерью. Это не идеальные мать и отец. Это обычные мать и отец. Не считая того, что отец хлебает кетчуп из бутылки, мать одержима кулинарным шоу «Мастер-шеф», а бабушка любит щеголять по дому в одном новом бикини…

Релиз группа:

Страна: Великобритания
Продолжительность: ~00:25:00
Перевод: Любительский (двухголосый) NEON Studio
Субтитры: Отсутствуют

Файл
Формат: MKV
Качество: HDTV (720p)
Видео: MPEG-4 AVC, ~ 3500 Кбит/с, 1280x720
Аудио: 48 kHz, AC3 Dolby Digital, 2/0 (L,R) ch, ~192 kbps

АНОНСЫ ПОПУЛЯРНЫХ РАЗДАЧ
Формат : Matroska
Версия формата : Version 2
Размер файла : 635 Мбайт
Продолжительность : 24 м.
Общий поток : 3669 Кбит/сек
Дата кодирования : UTC 2016-08-04 01:04:16
Программа кодирования : mkvmerge v4.9.1 ('Ich will') сборка от Jul 11 2011 23:53:15
Библиотека кодирования : libebml v1.2.1 + libmatroska v1.1.1

Видео
Идентификатор : 1
Формат : AVC
Формат/Информация : Advanced Video Codec
Профиль формата : Main@L5.1
Параметр CABAC формата : Да
Параметр ReFrames формата : 1 кадр
Режим смешивания : Header stripping
Идентификатор кодека : V_MPEG4/ISO/AVC
Продолжительность : 24 м.
Битрейт : 3404 Кбит/сек
Ширина : 1280 пикселей
Высота : 720 пикселей
Соотношение сторон : 16:9
Режим частоты кадров : Постоянный
Частота кадров : 25,000 кадров/сек
Цветовое пространство : YUV
Субдискретизация насыщенности : 4:2:0
Битовая глубина : 8 бит
Тип развёртки : Прогрессивная
Бит/(Пиксели*Кадры) : 0.148
Размер потока : 589 Мбайт (93%)
Default : Да
Forced : Нет

Аудио
Идентификатор : 2
Формат : AC-3
Формат/Информация : Audio Coding 3
Расширение режима : CM (complete main)
Параметр Endianness формата : Big
Режим смешивания : Header stripping
Идентификатор кодека : A_AC3
Продолжительность : 24 м.
Вид битрейта : Постоянный
Битрейт : 192 Кбит/сек
Каналы : 2 канала
Расположение каналов : Front: L R
Частота : 48,0 КГц
Частота кадров : 31,250 кадров/сек (1536 spf)
Метод сжатия : С потерями
Размер потока : 33,2 Мбайт (5%)
Default : Да
Forced : Нет



Скачать Обед.в.пятницу.вечером.Friday.Night.Dinner.(сезон.04).(Стив.Бенделак).[2016.комедия.ситком.HDTV].[720p].[DVO.(NEON.Studio)].torrent без регистрации
Золото ЗОЛОТАЯ РАЗДАЧА! СКАЧАННОЕ НЕ ЗАСЧИТЫВАЕТСЯ! Золото
Дата: Зарегистрирован   [ Тип: внутренний ] Как тут cкачать?
MAGNET ссылка
MAGNET ссылка


Скачать .torrent

19 KB

Статус: проверено DHT
Скачан: торрент - 3 раз, раздача полностью - 1 раз
Размер: 3,52 GB
Оценка:  - (Голосов: 0)
Поблагодарили: 0
Поделиться ссылкой на эту раздачу с друзьями:
В контактеFacebookОдноклассникиTwitterLivejournalМой МирLiveinternet
 

 
Показать сообщения:    


Вы не можете начинать темы
Вы не можете отвечать на сообщения
Вы не можете редактировать свои сообщения
Вы не можете удалять свои сообщения
Вы не можете голосовать в опросах
Вы не можете прикреплять файлы к сообщениям
Вы можете скачивать файлы