Loading...
Error

Скачать Случай в Кеттеринге / The Kettering Incident (сезон 01) (Роуэн Вудс, Тони Кравиц) [2016, триллер, драма, криминал, детектив, WEBRip] [DVO (HamsterStudio)]+[Original]+[Sub Rus] торрент без регистрации

 
Статистика раздачи
Размер:  5,1 GB   |    Скачан:  13 раз
Сидов:  1  [  0 KB/s  ]  
 
Автор Сообщение

МихаНЕзатор

[] 

Информация о фильме
Название: Случай в Кеттеринге
Оригинальное название: The Kettering Incident
Год выхода: 2016
Жанр: триллер, драма, криминал, детектив
Режиссер: Роуэн Вудс, Тони Кравиц

В ролях: Элизабет Дебики, Мэттью Ле Невез, Генри Никсон, Элисон Уайт, Нил Пигот, Энтони Фелан, Дэймон Гамо, Дэмиен Гарви, Саша Хорлер, Брэд Каннегиссер

О фильме: Эта история окутана тайнами с самых первых минут. Во главе сюжета - молодая и амбициозная Анна Мейси. Когда-то в возрасте четырнадцати лет она пережила трагедию и теперь ей лицом к лицу предстоит столкнуться с призраками из прошлого и попытаться не только разобраться с тайнами, что казалось бы преследуют ее с тех пор, но и отчаянно попытаться выжить в родном Кеттеринге.



Страна: Австралия
Студия: Porchlight Films, Sweet Potato Films
Продолжительность: ~00:52:00 серия
Перевод: Любительский (двухголосый закадровый) - HamsterStudio

Файл
Кодек: XviD / MP3
Качество: WEBRip
Видео: XviD, 720x384, ~1500 kbps, 25.000 fps, 0.220 bit/pixel
Звук:
Аудио Rus: MP3, 48,0 kHz, 2 ch, 128 kbps — двухголосый закадровый
Аудио Eng: MP3, 48,0 kHz, 2 ch, 128 kbps — оригинал
Субтитры: Русские (отдельно)

АНОНСЫ ПОПУЛЯРНЫХ РАЗДАЧ
General
Complete name : The Kettering Incident (2016) WEBRip - HamsterStudio/The Kettering Incident.S01E01-02.WEBRip.Rus.Eng.DV.HamsterStudio.avi
Format : AVI
Format/Info : Audio Video Interleave
File size : 1.22 GiB
Duration : 1h 37mn
Overall bit rate : 1 789 Kbps
Movie name : The Kettering Incident.S01E01-02.WEBRip.Rus.Eng.DV.HamsterStudio / NNM-Club
Writing application : VirtualDubModRus 1.5.10.2 (build 2542/release)
Writing library : VirtualDubMod build 2542/release

Video
ID : 0
Format : MPEG-4 Visual
Format profile : Advanced Simple@L5
Format settings, BVOP : 2
Format settings, QPel : No
Format settings, GMC : No warppoints
Format settings, Matrix : Default (H.263)
Codec ID : XVID
Codec ID/Hint : XviD
Duration : 1h 37mn
Bit rate : 1 519 Kbps
Width : 720 pixels
Height : 384 pixels
Display aspect ratio : 1.85:1
Frame rate : 25.000 fps
Color space : YUV
Chroma subsampling : 4:2:0
Bit depth : 8 bits
Scan type : Progressive
Compression mode : Lossy
Bits/(Pixel*Frame) : 0.220
Stream size : 1.03 GiB (85%)
Title : Rip by DriverV / NNM-Club
Writing library : XviD 64

Audio #1
ID : 1
Format : MPEG Audio
Format version : Version 1
Format profile : Layer 3
Mode : Joint stereo
Mode extension : MS Stereo
Codec ID : 55
Codec ID/Hint : MP3
Duration : 1h 37mn
Bit rate mode : Constant
Bit rate : 128 Kbps
Channel(s) : 2 channels
Sampling rate : 48.0 KHz
Compression mode : Lossy
Stream size : 89.1 MiB (7%)
Alignment : Aligned on interleaves
Interleave, duration : 40 ms (1.00 video frame)
Interleave, preload duration : 504 ms

Audio #2
ID : 2
Format : MPEG Audio
Format version : Version 1
Format profile : Layer 3
Mode : Joint stereo
Mode extension : MS Stereo
Codec ID : 55
Codec ID/Hint : MP3
Duration : 1h 37mn
Bit rate mode : Constant
Bit rate : 128 Kbps
Channel(s) : 2 channels
Sampling rate : 48.0 KHz
Compression mode : Lossy
Stream size : 89.1 MiB (7%)
Alignment : Aligned on interleaves
Interleave, duration : 40 ms (1.00 video frame)
Interleave, preload duration : 504 ms



Скачать Случай.в.Кеттеринге.The.Kettering.Incident.(сезон.01).(Роуэн.Вудс.Тони.Кравиц).[2016.триллер.драма.криминал.детектив.WEBRip].[DVO.(HamsterStudio)]+[Original]+[Sub.Rus].torrent без регистрации
Золото ЗОЛОТАЯ РАЗДАЧА! СКАЧАННОЕ НЕ ЗАСЧИТЫВАЕТСЯ! Золото
Дата: Зарегистрирован   [ Тип: внутренний ] Как тут cкачать?
MAGNET ссылка
MAGNET ссылка


Скачать .torrent

15 KB

Статус: проверено DHT
Скачан: торрент - 13 раз, раздача полностью - 8 раз
Размер: 5,1 GB
Оценка:  - (Голосов: 0)
Поблагодарили: 2
Поделиться ссылкой на эту раздачу с друзьями:
В контактеFacebookОдноклассникиTwitterLivejournalМой МирLiveinternet
 

 
Показать сообщения:    


Вы не можете начинать темы
Вы не можете отвечать на сообщения
Вы не можете редактировать свои сообщения
Вы не можете удалять свои сообщения
Вы не можете голосовать в опросах
Вы не можете прикреплять файлы к сообщениям
Вы можете скачивать файлы