Loading...
Error

Скачать Дюна / Dune (сезон 01) (Джон Харрисон) [2000, фантастика, фэнтези, драма, приключения, BDRip] [MVO] торрент без регистрации

 
Статистика раздачи
Размер:  4,35 GB   |    Скачан:  27 раз
Сидов:  1  [  0 KB/s  ]  
 
Автор Сообщение

МихаНЕзатор

[] 

Информация о фильме
Название: Дюна
Оригинальное название: Dune
Год выхода: 2000
Жанр: фантастика, фэнтези, драма, приключения
Режиссер: Джон Харрисон

В ролях: Уильям Хёрт, Алек Ньюман, Саския Ривз, П.Х. Мориарти, Иэн МакНис, Мэтт Кислар, Ласло И. Киш, Джанкарло Джаннини, Джули Кокс, Уве Оксенкнехт, Джеймс Уотсон, Роберт Расселл, Лаура Бертон, Жан Унгер, Мирослав Таборски, Барбора Кодетова, Карел Добры, Сюзанна Гейслерова, Джейкоб Шварц, Клотильда Ле Гранд, Филип Ленковски

О фильме: Арракис… Дюна… Бесплодная пустыня Империи и самая ценная планета в космосе. Поскольку здесь и только здесь была открыта специя. Без нее в Империи не будет торговли. Не будет цивилизации. Арракис… Дюна… родина специи. Величайшее сокровище Вселенной. Тот кто владеет ею, владеет судьбой.



Страна: США, Германия, Канада, Италия
Студия: Milk & Honey Pictures, Evision, New Amsterdam Entertainment
Продолжительность: 3 х ~ 01:35:30
Перевод: Профессиональный многоголосый

Файл
Качество: BDRip (Dune 2000.BD_Remux 1080P)
Видео: XviD, ~ 1700 Кбит/с, 720x400, 24 кадр/с
Звук: AC3, 6 ch, 448 Кбит/с

АНОНСЫ ПОПУЛЯРНЫХ РАЗДАЧ
Эпизод 1: В огромной империи могущественная гильдия контролирует свою монополию на передвижение по космосу. Это возможно только с помощью "пряности", редкой субстанции, выращиваемой гигантскими песчаными червями в жарких пустынях Арракиса. Благородный Герцог и враждебный Барон начинают бескомпромиссное сражение за царственный Арракис.
Эпизод 2: Отгремели битвы за Арракис, и во главе песчанной провинции встал племянник кровавого Барона, который сразу решает устанавливать свои порядки с помощью железа. Изгнанный Герцог становится народным вождем, и, пользуясь своими невероятными способностями и благородным происхождением, возглавляет новый крестовый поход против черных сил.
Эпизод 3: Черная туча космических кораблей прибыла на пустынную планету Арракис. Империя решила нанести удар по Герцогу и возглавляемым им войскам, чтобы заполучить полный контроль над редкой субстанцией. Герцог должен пройти последние испытания и раскрыть тайные карты своей судьбы
Общее
Полное имя : Dune.2000.BDRipDune.2000.P2.BDRip.avi
Формат : AVI
Формат/Информация : Audio Video Interleave
Размер файла : 1,45 Гбайт
Продолжительность : 1 ч. 36 м.
Общий поток : 2151 Кбит/сек
Программа кодирования : VirtualDubMod 1.5.10.2 (build 2540/release)
Библиотека кодирования : VirtualDubMod build 2540/release

Видео
Идентификатор : 0
Формат : MPEG-4 Visual
Профиль формата : Advanced Simple@L5
Параметр BVOP формата : 1
Параметр QPel формата : Нет
Параметр GMC формата : Без точки перехода
Параметр матрицы формата : Default (MPEG)
Идентификатор кодека : XVID
Идентификатор кодека/Подсказка : XviD
Продолжительность : 1 ч. 36 м.
Битрейт : 1694 Кбит/сек
Ширина : 720 пикселей
Высота : 400 пикселей
Соотношение сторон : 16:9
Частота кадров : 24,000 кадра/сек
Цветовое пространство : YUV
Субдискретизация насыщенности : 4:2:0
Битовая глубина : 8 бит
Тип развёртки : Прогрессивная
Метод сжатия : С потерями
Бит/(Пиксели*Кадры) : 0.245
Размер потока : 1,14 Гбайт (79%)
Библиотека кодирования : XviD 1.2.0.dev47 (UTC 2006-11-01)

Аудио
Идентификатор : 1
Формат : AC-3
Формат/Информация : Audio Coding 3
Расширение режима : CM (complete main)
Параметр Endianness формата : Big
Идентификатор кодека : 2000
Продолжительность : 1 ч. 36 м.
Вид битрейта : Постоянный
Битрейт : 448 Кбит/сек
Каналы : 6 каналов
Расположение каналов : Front: L C R, Side: L R, LFE
Частота : 48,0 КГц
Частота кадров : 31,250 кадров/сек (1536 spf)
Метод сжатия : С потерями
Размер потока : 309 Мбайт (21%)
Выравнивание : Разделение по промежуткам
Продолжительность промежутка : 42 мс. (1,00 видеокадр)
Время предзагрузки промежутка : 500 мс.



Скачать Дюна.Dune.(сезон.01).(Джон.Харрисон).[2000.фантастика.фэнтези.драма.приключения.BDRip].[MVO].torrent без регистрации
Золото ЗОЛОТАЯ РАЗДАЧА! СКАЧАННОЕ НЕ ЗАСЧИТЫВАЕТСЯ! Золото
Дата: Зарегистрирован   [ Тип: внутренний ] Как тут cкачать?
MAGNET ссылка
MAGNET ссылка


Скачать .torrent

23 KB

Статус: проверено DHT
Скачан: торрент - 27 раз, раздача полностью - 26 раз
Размер: 4,35 GB
Оценка:  - (Голосов: 0)
Поблагодарили: 1
Поделиться ссылкой на эту раздачу с друзьями:
В контактеFacebookОдноклассникиTwitterLivejournalМой МирLiveinternet
 

 
Показать сообщения:    


Вы не можете начинать темы
Вы не можете отвечать на сообщения
Вы не можете редактировать свои сообщения
Вы не можете удалять свои сообщения
Вы не можете голосовать в опросах
Вы не можете прикреплять файлы к сообщениям
Вы можете скачивать файлы