Loading...
Error

Скачать Полиция Чикаго / Chicago PD (Сезон 04, серии 01-08 из 22) (Джо Чаппелль, Марк Тинкер) [2016, боевик, драма, HDTVRip] [Sub] (Rus) + [Orig] (Eng) торрент без регистрации

 
Статистика раздачи
Размер:  3,06 GB   |    Скачан:  57 раз
Сидов:  1  [  0 KB/s  ]  
 
Автор Сообщение

leon030982

[] 


Полиция Чикаго / Chicago PD



Год выпуска: 2016
Страна: США
Жанр: боевик, драма
Продолжительность: ~ 00:42:09
Перевод: Русские субтитры
Оригинальная дорожка: английский

Режиссёр: Джо Чаппелль, Марк Тинкер

В ролях: Джейсон Бех, Джон Седа, Таня Рэймонд, Скотт Иствуд, Ларойс Хоукинс, Келли Блац, Майкелти Уильямсон, Дж.Б. Смув, Дон Кресс,
Andre Bellos

Описание: Спин-офф сериала Пожарные Чикаго.В центре сюжета находятся работники полицейского департамента города Чикаго, в частности две группы полицейских, которые находятся на разных ступенях власти.




Качество: HDTVRip
Формат: AVI
Видео кодек: XvID
Аудио кодек: MP3
Видео: 624x352 (1.78:1), 23.976 fps, XviD MPEG-4 ~1017 kbps avg, 0.19 bit/pixel
Аудио: 48 kHz, MPEG Layer 3, 2 ch, ~128.00 kbps avg

Добавлена 7-8-я серия!

Цитата:

Субтитры -- НотаБеноид, владелец: ntnext
General
Complete name : E:\Chicago PD S04_KM\Chicago.PD.S04E01.HDTV.XviD-FUM.avi
Format : AVI
Format/Info : Audio Video Interleave
File size : 348 MiB
Duration : 41mn 38s
Overall bit rate : 1 167 Kbps
Writing library : VirtualDub build 35491/release

Video
ID : 0
Format : MPEG-4 Visual
Format profile : Advanced Simple@L5
Format settings, BVOP : 2
Format settings, QPel : No
Format settings, GMC : No warppoints
Format settings, Matrix : Default (H.263)
Muxing mode : Packed bitstream
Codec ID : XVID
Codec ID/Hint : XviD
Duration : 41mn 38s
Bit rate : 1 030 Kbps
Width : 624 pixels
Height : 352 pixels
Display aspect ratio : 16:9
Frame rate : 23.976 fps
Color space : YUV
Chroma subsampling : 4:2:0
Bit depth : 8 bits
Scan type : Progressive
Compression mode : Lossy
Bits/(Pixel*Frame) : 0.195
Stream size : 307 MiB (88%)
Writing library : XviD 64

Audio
ID : 1
Format : MPEG Audio
Format version : Version 1
Format profile : Layer 3
Mode : Joint stereo
Codec ID : 55
Codec ID/Hint : MP3
Duration : 41mn 38s
Bit rate mode : Constant
Bit rate : 128 Kbps
Channel(s) : 2 channels
Sampling rate : 48.0 KHz
Compression mode : Lossy
Stream size : 38.1 MiB (11%)
Alignment : Split accross interleaves
Interleave, duration : 42 ms (1.00 video frame)
Interleave, preload duration : 500 ms
Внимание! Раздача ведётся путём добавления новых серий; при каждом добавлении создётся новый торрент. Чтобы начать докачку новой серии, пользователям необходимо сделать следующее: (1) остановить скачивание, (2) удалить старый торрент у себя из клиента (старые серии удалять не надо), (3) скачать новый торрент и запустить его у себя в клиенте вместо старого, при этом указать клиенту путь в старую папку куда и должно происходить скачивание новых серий.
Ваш клиент при этом должен произвести хеширование (проверку) старой папки (если не производит сам - помогите ему сделать это), и будет докачивать только те серии которых у вас ещё нет. Старые серии при этом не удаляются, а продолжают раздаваться!
Eсли вы уже удалили старые серии, то предотвратить повторную закачку старых серий можно, отжав галочку в соответсвующих местах при запуске нового торрента.



Скачать Полиция.Чикаго.Chicago.PD.(Сезон.04.серии.01-08.из.22).(Джо.Чаппелль.Марк.Тинкер).[2016.боевик.драма.HDTVRip].[Sub].(Rus).+.[Orig].(Eng).torrent без регистрации
Золото ЗОЛОТАЯ РАЗДАЧА! СКАЧАННОЕ НЕ ЗАСЧИТЫВАЕТСЯ! Золото
Дата: Зарегистрирован   [ Тип: внутренний ] Как тут cкачать?
MAGNET ссылка
MAGNET ссылка


Скачать .torrent

17 KB

Статус: проверено DHT
Скачан: торрент - 57 раз, раздача полностью - 3 раз
Размер: 3,06 GB
Оценка:  - (Голосов: 0)
Поблагодарили: 0
Поделиться ссылкой на эту раздачу с друзьями:
В контактеFacebookОдноклассникиTwitterLivejournalМой МирLiveinternet
 

 

leon030982

[] 

Цитата:

Сериал ушел на каникулы. 9-я серия выйдет 4-го января 2017-го
 
Показать сообщения:    


Вы не можете начинать темы
Вы не можете отвечать на сообщения
Вы не можете редактировать свои сообщения
Вы не можете удалять свои сообщения
Вы не можете голосовать в опросах
Вы не можете прикреплять файлы к сообщениям
Вы можете скачивать файлы