Loading...
Error

Скачать Готэм / Gotham (Сезон 03, серия 01-11 из 22) [2016, триллер, драма, криминал, HDTVRip] [720p] [Sub] (Rus) + [Orig] (Eng) торрент без регистрации

 
Статистика раздачи
Размер:  7,76 GB   |    Скачан:  22 раза
Сидов:  1  [  0 KB/s  ]  
 
Автор Сообщение

leon030982

[] 



Готэм

Информация о фильме:
✦ Название: Готэм
✦ Оригинальное название: Gotham
✦ Год выхода: 2016
✦ Жанр: триллер, драма, криминал
✦ Страна: США
✦ Продолжительность: ~ 00:43:00
✦ Перевод: Русские субтитры [NotaBenoid]
✦ Оригинальная дорожка: английский

✦ Режиссер: Дэнни Кэннон
✦ В ролях: Бен МакКензи, Шон Пертуи, Робин Тейлор, Забрина Гевара, Эрин Ричардс, Донал Лог, Джада Пинкетт Смит, Дэвид Мазоуз, Камрен Бикондова, Кори Майкл Смит и др.



Новый сотрудник департамента полиции Готэма, детектив Джеймс Гордон и его напарник Харви Баллок назначаются начальником отдела полиции Готэма по расследованию убийств Сарой Эссен на самое громкое дело последних лет - убийство Томаса и Марты Уэйн. Во время расследования Гордон знакомится с сыном убитых - Брюсом Уэйном, который после смерти родителей находится под опекой своего дворецкого Альфреда. Одновременно с расследованием убийства Гордону приходится бороться с местным главарем банды Фишем Муни, а также с будущими злодеями Готэма: Селиной Кайл и Освальдом Кобблпотом. В итоге, Гордон фокусируется на дружбе с молодым Брюсом, чтобы в будущем сделать из маленького мальчика Тёмного рыцаря - защитника Готэма.




Информация о файле:


✦ Качество: HDTV 720p
✦ Формат: MKV
✦ Видео кодек: AVC
✦ Аудио кодек: AC3
✦ Видео: MPEG-4 AVC, ~ 1800 Кбит/с, 1280x720, 23.976 fps
✦ Аудио: 48 kHz, AC3, 6 ch, 448 kbps [ENG]

Торент обновлен. Добавлена 10-11-я серия!
General
Unique ID : 251192238174248060084455715263712633416 (0xBCF9DD864004884B9C3FCF826EA0A248)
Complete name : E:\Gotham.S03.720p.HDTV.X264.Sub\Gotham.S03E01.720p.HDTV.X264-DIMENSION[ettv].mkv
Format : Matroska
Format version : Version 4 / Version 2
File size : 705 MiB
Duration : 44mn 6s
Overall bit rate : 2 235 Kbps
Encoded date : UTC 2016-09-19 17:07:10
Writing application : mkvmerge v9.4.2 ('So High') 64bit
Writing library : libebml v1.3.4 + libmatroska v1.4.5

Video
ID : 1
Format : AVC
Format/Info : Advanced Video Codec
Format profile : High@L4.1
Format settings, CABAC : Yes
Format settings, ReFrames : 9 frames
Codec ID : V_MPEG4/ISO/AVC
Duration : 44mn 6s
Bit rate : 1 743 Kbps
Width : 1 280 pixels
Height : 720 pixels
Display aspect ratio : 16:9
Frame rate mode : Constant
Frame rate : 23.976 fps
Color space : YUV
Chroma subsampling : 4:2:0
Bit depth : 8 bits
Scan type : Progressive
Bits/(Pixel*Frame) : 0.079
Stream size : 550 MiB (78%)
Writing library : x264 core 148 r2705 3f5ed56
Encoding settings : cabac=1 / ref=9 / deblock=1:-2:-2 / analyse=0x3:0x133 / me=umh / subme=10 / psy=1 / psy_rd=1.00:0.00 / mixed_ref=1 / me_range=32 / chroma_me=1 / trellis=2 / 8x8dct=1 / cqm=0 / deadzone=21,11 / fast_pskip=0 / chroma_qp_offset=-2 / threads=16 / lookahead_threads=1 / sliced_threads=0 / nr=0 / decimate=1 / interlaced=0 / bluray_compat=0 / constrained_intra=0 / bframes=5 / b_pyramid=2 / b_adapt=2 / b_bias=0 / direct=3 / weightb=1 / open_gop=0 / weightp=2 / keyint=250 / keyint_min=23 / scenecut=40 / intra_refresh=0 / rc_lookahead=60 / rc=crf / mbtree=1 / crf=18.0 / qcomp=0.60 / qpmin=0 / qpmax=69 / qpstep=4 / ip_ratio=1.40 / aq=1:1.00
Language : English
Default : Yes
Forced : No
Color range : Limited
Matrix coefficients : BT.709

Audio
ID : 2
Format : AC-3
Format/Info : Audio Coding 3
Mode extension : CM (complete main)
Format settings, Endianness : Big
Codec ID : A_AC3
Duration : 44mn 6s
Bit rate mode : Constant
Bit rate : 448 Kbps
Channel(s) : 6 channels
Channel positions : Front: L C R, Side: L R, LFE
Sampling rate : 48.0 KHz
Compression mode : Lossy
Stream size : 141 MiB (20%)
Default : Yes
Forced : No



Скачать Готэм.Gotham.(Сезон.03.серия.01-11.из.22).[2016.триллер.драма.криминал.HDTVRip].[720p].[Sub].(Rus).+.[Orig].(Eng).torrent без регистрации
Золото ЗОЛОТАЯ РАЗДАЧА! СКАЧАННОЕ НЕ ЗАСЧИТЫВАЕТСЯ! Золото
Дата: Зарегистрирован   [ Тип: внутренний ] Как тут cкачать?
MAGNET ссылка
MAGNET ссылка


Скачать .torrent

41 KB

Статус: проверено DHT
Скачан: торрент - 22 раз, раздача полностью - 0 раз
Размер: 7,76 GB
Оценка:  - (Голосов: 0)
Поблагодарили: 0
Поделиться ссылкой на эту раздачу с друзьями:
В контактеFacebookОдноклассникиTwitterLivejournalМой МирLiveinternet
 

 
Показать сообщения:    


Вы не можете начинать темы
Вы не можете отвечать на сообщения
Вы не можете редактировать свои сообщения
Вы не можете удалять свои сообщения
Вы не можете голосовать в опросах
Вы не можете прикреплять файлы к сообщениям
Вы можете скачивать файлы