Loading...
Error

Скачать Готэм / Gotham (Сезон 03, серия 01-11 из 22) [2016, триллер, драма, криминал, HDTV] [1080p] [MVO] (HamsterStudio) торрент без регистрации

 
Статистика раздачи
Размер:  18,36 GB   |    Скачан:  20 раз
Сидов:  1  [  0 KB/s  ]  
 
Автор Сообщение

leon030982

[] 



Готэм

Информация о фильме:
✦ Название: Готэм
✦ Оригинальное название: Gotham
✦ Год выхода: 2016
✦ Жанр: триллер, драма, криминал
✦ Страна: США
✦ Продолжительность: ~ 00:49:00 - серия
✦ Перевод: Профессиональный (многоголосый закадровый) [HamsterStudio]


✦ Режиссер: Дэнни Кэннон
✦ В ролях: Бен МакКензи, Шон Пертуи, Робин Тейлор, Забрина Гевара, Эрин Ричардс, Донал Лог, Джада Пинкетт Смит, Дэвид Мазоуз, Камрен Бикондова, Кори Майкл Смит и др.



Новый сотрудник департамента полиции Готэма, детектив Джеймс Гордон и его напарник Харви Баллок назначаются начальником отдела полиции Готэма по расследованию убийств Сарой Эссен на самое громкое дело последних лет - убийство Томаса и Марты Уэйн. Во время расследования Гордон знакомится с сыном убитых - Брюсом Уэйном, который после смерти родителей находится под опекой своего дворецкого Альфреда. Одновременно с расследованием убийства Гордону приходится бороться с местным главарем банды Фишем Муни, а также с будущими злодеями Готэма: Селиной Кайл и Освальдом Кобблпотом. В итоге, Гордон фокусируется на дружбе с молодым Брюсом, чтобы в будущем сделать из маленького мальчика Тёмного рыцаря - защитника Готэма.





Информация о файле:


✦ Качество: HDTV (1080p)
✦ Формат: MKV
✦ Видео кодек: AVC
✦ Аудио кодек: AC3
✦ Видео: MPEG-4 AVC, ~ 5022 Кбит/с, 1920x1080, 23.976 fps
✦ Аудио: 48 kHz, AC3, 6 ch, 384 kbps

Торент обновлен! Добавлена 11-я серия

Цитата:

Озвучка: Алексей Соловьёв, Анастасия Снегирева и Андрей Жариков
Автор перевода: Антон Кедров
Монтаж и сведение звука: Роман Мырон

Имеется Реклама
Внимание! Раздача ведётся путём добавления новых серий; при каждом добавлении создётся новый торрент. Чтобы начать докачку новой серии, пользователям необходимо сделать следующее: (1) остановить скачивание, (2) удалить старый торрент у себя из клиента (старые серии удалять не надо), (3) скачать новый торрент и запустить его у себя в клиенте вместо старого, при этом указать клиенту путь в старую папку куда и должно происходить скачивание новых серий.
Ваш клиент при этом должен произвести хеширование (проверку) старой папки (если не производит сам - помогите ему сделать это), и будет докачивать только те серии которых у вас ещё нет. Старые серии при этом не удаляются, а продолжают раздаваться!
Eсли вы уже удалили старые серии, то предотвратить повторную закачку старых серий можно, отжав галочку в соответсвующих местах при запуске нового торрента.
General
Unique ID : 243059257313806466366807047688079136921 (0xB6DB829BF35E67A2BF578AEA0AF9D899)
Complete name : E:\Готэм (Season 03) HamsterStudio 1080\Gotham.S03E01.HDTV.1080p.HamsterStudio.mkv
Format : Matroska
Format version : Version 4 / Version 2
File size : 1.69 GiB
Duration : 44mn 37s
Overall bit rate mode : Variable
Overall bit rate : 5 407 Kbps
Encoded date : UTC 2016-09-20 14:30:01
Writing application : mkvmerge v7.8.0 ('River Man') 64bit built on Mar 27 2015 16:31:37
Writing library : libebml v1.3.1 + libmatroska v1.4.2

Video
ID : 1
Format : AVC
Format/Info : Advanced Video Codec
Format profile : Main@L4
Format settings, CABAC : Yes
Format settings, ReFrames : 3 frames
Codec ID : V_MPEG4/ISO/AVC
Duration : 44mn 37s
Bit rate mode : Variable
Bit rate : 4 916 Kbps
Maximum bit rate : 16.0 Mbps
Width : 1 920 pixels
Height : 1 080 pixels
Display aspect ratio : 16:9
Frame rate mode : Constant
Frame rate : 23.976 fps
Standard : NTSC
Color space : YUV
Chroma subsampling : 4:2:0
Bit depth : 8 bits
Scan type : Progressive
Bits/(Pixel*Frame) : 0.099
Stream size : 1.53 GiB (91%)
Default : Yes
Forced : No
Color range : Limited

Audio
ID : 3
Format : AC-3
Format/Info : Audio Coding 3
Mode extension : CM (complete main)
Format settings, Endianness : Big
Codec ID : A_AC3
Duration : 44mn 37s
Bit rate mode : Constant
Bit rate : 384 Kbps
Channel(s) : 6 channels
Channel positions : Front: L C R, Side: L R, LFE
Sampling rate : 48.0 KHz
Compression mode : Lossy
Stream size : 123 MiB (7%)
Title : HamsterStudio
Language : Russian
Default : Yes
Forced : Yes




Скачать Готэм.Gotham.(Сезон.03.серия.01-11.из.22).[2016.триллер.драма.криминал.HDTV].[1080p].[MVO].(HamsterStudio).torrent без регистрации
Золото ЗОЛОТАЯ РАЗДАЧА! СКАЧАННОЕ НЕ ЗАСЧИТЫВАЕТСЯ! Золото
Дата: Зарегистрирован   [ Тип: внутренний ] Как тут cкачать?
MAGNET ссылка
MAGNET ссылка


Скачать .torrent

93 KB

Статус: проверено DHT
Скачан: торрент - 20 раз, раздача полностью - 0 раз
Размер: 18,36 GB
Оценка:  - (Голосов: 0)
Поблагодарили: 0
Поделиться ссылкой на эту раздачу с друзьями:
В контактеFacebookОдноклассникиTwitterLivejournalМой МирLiveinternet
 

 
Показать сообщения:    


Вы не можете начинать темы
Вы не можете отвечать на сообщения
Вы не можете редактировать свои сообщения
Вы не можете удалять свои сообщения
Вы не можете голосовать в опросах
Вы не можете прикреплять файлы к сообщениям
Вы можете скачивать файлы