Loading...
Error

Скачать Штамм / The Strain (сезон 03) (Гильермо дель Торо и др.) [2016, ужасы, фантастика, драма, WEB-DLRip-AVC] [MVO (AlexFilm)]+[Eng] торрент без регистрации

 
Статистика раздачи
Размер:  8,15 GB   |    Скачан:  155 раз
Сидов:  9  [  0 KB/s  ]   Личеров:  3  [  0 KB/s  ]  
 
Автор Сообщение

МихаНЕзатор

[] 

Информация о фильме
Название: Штамм
Оригинальное название: The Strain
Год выпуска: 2016
Страна: США
Жанр: ужасы, триллер, драма
Режиссер: Дж. Майлз Дэйл , Деран Сарафян , Фил Абрахам

В ролях: Кори Столл (Ephraim Goodweather), Миа Маэстро (Nora Martinez), Дэвид Брэдли (Abraham Setrakian), Рихард Заммель (Thomas Eichorst), Шон Эстин (Jim Kent), Джонатан Хайд (Eldritch Palmer), Кевин Дюран (Vasiliy Fet), Джек Кеси (Gabriel Bolivar), Натали Браун (Kelly Goodweather), Бен Хайленд (Zach Goodweather), Роджер Р. Кросс (Reggie Fitzwilliam), Мигель Гомес (Augustin «Gus» Elizalde)

Описание: В аэропорту Нью-Йорка экстренно приземляется самолет, полный мертвецов. Для выяснения обстоятельств их смерти на борт направляются ученые, возглавляемые лучшим городским эпидемиологом Эфраимом Гудвезером. В ходе исследований становится ясно, что пассажиры заражены вирусом вампиризма, который грозит перерасти в масштабную эпидемию, способную погубить все человечество.

Релиз от:

Перевод: Профессиональный (многоголосый) AlexFilm
Продолжительность: 00:42:46

Качество: WEB-DLRip-AVC
Формат: MKV
Видео: AVC, 1024x576 (16:9), 1952 kbps, 23,976 fps, 0,138 bpp
Аудио №1: русский / AC3 / 5.1 / 48 kHz / 384 kbps
Аудио №2: английский / AC3 / 5.1 / 48 kHz / 384 kbps

АНОНСЫ ПОПУЛЯРНЫХ РАЗДАЧ


Торрент обновлён, добавлена 10-я серия!

General
Unique ID : 205766461675279575993738508845674554890 (0x9ACD2DD38A62DA51A6B26250A52E660A)
Complete name : D:downloadThe.StrainThe.Strain.s03e01.2016.WEB-DLRip-AVC by schultz R.G.Resident.mkv
Format : Matroska
Format version : Version 4 / Version 2
File size : 833 MiB
Duration : 42 min
Overall bit rate : 2 721 kb/s
Encoded date : UTC 2016-09-14 23:02:07
Writing application : mkvmerge v8.9.0 ('Father Daughter') 64bit
Writing library : libebml v1.3.3 + libmatroska v1.4.4

Video
ID : 1
Format : AVC
Format/Info : Advanced Video Codec
Format profile : High@L4.1
Format settings, CABAC : Yes
Format settings, ReFrames : 12 frames
Codec ID : V_MPEG4/ISO/AVC
Duration : 42 min
Bit rate : 1 952 kb/s
Width : 1 024 pixels
Height : 576 pixels
Display aspect ratio : 16:9
Frame rate mode : Constant
Frame rate : 23.976 (23976/1000) FPS
Color space : YUV
Chroma subsampling : 4:2:0
Bit depth : 8 bits
Scan type : Progressive
Bits/(Pixel*Frame) : 0.138
Stream size : 597 MiB (72%)
Writing library : x264 core 146 r2538 121396c
Encoding settings : cabac=1 / ref=12 / deblock=1:-3:-3 / analyse=0x3:0x113 / me=umh / subme=11 / psy=1 / psy_rd=1.00:0.00 / mixed_ref=1 / me_range=48 / chroma_me=1 / trellis=2 / 8x8dct=1 / cqm=0 / deadzone=21,11 / fast_pskip=0 / chroma_qp_offset=-2 / threads=12 / lookahead_threads=3 / sliced_threads=0 / nr=0 / decimate=0 / interlaced=0 / bluray_compat=0 / constrained_intra=0 / bframes=11 / b_pyramid=2 / b_adapt=2 / b_bias=0 / direct=3 / weightb=1 / open_gop=0 / weightp=2 / keyint=240 / keyint_min=23 / scenecut=40 / intra_refresh=0 / rc_lookahead=40 / rc=2pass / mbtree=1 / bitrate=1952 / ratetol=1.0 / qcomp=0.60 / qpmin=0 / qpmax=69 / qpstep=4 / cplxblur=20.0 / qblur=0.5 / vbv_maxrate=50000 / vbv_bufsize=62500 / nal_hrd=none / filler=0 / ip_ratio=1.40 / aq=1:1.00
Language : English
Default : Yes
Forced : No

Audio #1
ID : 2
Format : AC-3
Format/Info : Audio Coding 3
Mode extension : CM (complete main)
Format settings, Endianness : Big
Codec ID : A_AC3
Duration : 42 min
Bit rate mode : Constant
Bit rate : 384 kb/s
Channel(s) : 6 channels
Channel positions : Front: L C R, Side: L R, LFE
Sampling rate : 48.0 kHz
Frame rate : 31.250 FPS (1536 spf)
Compression mode : Lossy
Delay relative to video : 7 ms
Stream size : 117 MiB (14%)
Title : AlexFilm
Language : Russian
Default : Yes
Forced : No

Audio #2
ID : 3
Format : AC-3
Format/Info : Audio Coding 3
Mode extension : CM (complete main)
Format settings, Endianness : Big
Codec ID : A_AC3
Duration : 42 min
Bit rate mode : Constant
Bit rate : 384 kb/s
Channel(s) : 6 channels
Channel positions : Front: L C R, Side: L R, LFE
Sampling rate : 48.0 kHz
Frame rate : 31.250 FPS (1536 spf)
Compression mode : Lossy
Delay relative to video : 7 ms
Stream size : 117 MiB (14%)
Title : Eng
Language : English
Default : No
Forced : No
Внимание! Раздача ведётся путём добавления новых серий; при каждом добавлении создаётся новый торрент. Чтобы начать докачку новой серии, пользователям необходимо сделать следующее:
(1) остановить скачивание,
(2) удалить старый торрент у себя из клиента (старые серии удалять не надо),
(3) скачать новый торрент и запустить его у себя в клиенте вместо старого, при этом указать клиенту путь в старую папку куда и должно происходить скачивание новых серий.
Ваш клиент при этом должен произвести хеширование (проверку) старой папки (если не производит сам - помогите ему сделать это), и будет докачивать только те серии которых у вас ещё нет. Старые серии при этом не удаляются, а продолжают раздаваться!
Eсли вы уже удалили старые серии, то предотвратить повторную закачку старых серий можно, отжав галочку в соответствующих местах при запуске нового торрента. По возможности, желательно не удалять старые серии как можно дольше чтобы релизёр не столько продолжал раздавать старые серии, а смог сконцентрироваться на новых.



Скачать Штамм.The.Strain.(сезон.03).(Гильермо.дель.Торо.и.др.).[2016.ужасы.фантастика.драма.WEB-DLRip-AVC].[MVO.(AlexFilm)]+[Eng].torrent без регистрации
Золото ЗОЛОТАЯ РАЗДАЧА! СКАЧАННОЕ НЕ ЗАСЧИТЫВАЕТСЯ! Золото
Дата: Зарегистрирован   [ Тип: внешний ] Как тут cкачать?
MAGNET ссылка
MAGNET ссылка


Скачать .torrent

22 KB

Статус: проверено DHT
Скачан: торрент - 155 раз, раздача полностью - 2 раз
Размер: 8,15 GB
Оценка:  - (Голосов: 0)
Поблагодарили: 0
Поделиться ссылкой на эту раздачу с друзьями:
В контактеFacebookОдноклассникиTwitterLivejournalМой МирLiveinternet
 

 
Показать сообщения:    


Вы не можете начинать темы
Вы не можете отвечать на сообщения
Вы не можете редактировать свои сообщения
Вы не можете удалять свои сообщения
Вы не можете голосовать в опросах
Вы не можете прикреплять файлы к сообщениям
Вы можете скачивать файлы