Loading...
Error

Скачать Рейк / Раздолбай / Rake (сезон 01) (Питер Дункан) [2010, драма, комедия, BDRip] [720p] [VO (М. Чадов)]+[Eng] торрент без регистрации

 
Статистика раздачи
Размер:  17,98 GB   |    Скачан:  5 раз
Сидов:  1  [  0 KB/s  ]  
 
Автор Сообщение

МихаНЕзатор

[] 

Информация о фильме
Название: Раздолбай / Рейк
Оригинальное название: Rake
Год выхода: 2010
Жанр: драма, комедия
Режиссер: Питер Дункан / Peter Duncan

В ролях: Ричард Роксбург, Мэтт Дэй, Расселл Дикстра, Даниэль Кормак, Кейт Бокс, Кэролайн Брейзиер, Кигэн Джойс, Эдриэнн Пикеринг, Дэмиен Гарви, Лачлан Джудд и др.

О фильме: Австралийский сериал об адвокате Кливере Грине с весьма подмоченным моральным обликом - женщины, кокаин, зависимость от азартных игр, неуплата налогов, сомнительные клиенты. Но адвокат он блестящий и часто берется за безнадежные дела, которыми более правильные коллеги не хотят портить репутацию. И сам сериал, и Роксбург получили в Австралии почти все возможные награды.



Страна: Австралия
Продолжительность: 8 x 53 мин.
Перевод: Любительский одноголосый закадровый [Михаил Чадов]

Доп. информация: Озвучка Михаила Чадова доступна благодаря mihaildns и будулайроманову. Работа со звуком - mihaildns. В переводе присутствует ненормативная лексика.

Файл
Кодек: Н264
Качество: BDRip 720p
Видео: 1280x720 (16:9), 25,000 fps, 5351 kbps avg, 0.232 bit/pixel
Звук:
Аудио 1: 48 kHz, AC3, 2/0 (L,R) ch, 192 kbps - Чадов
Аудио 2: 48 kHz, AC3, 2/0 (L,R) ch, 640 kbps - Eng

АНОНСЫ ПОПУЛЯРНЫХ РАЗДАЧ
1. "Дело Маррея".
2. "Дело Люси Маркс".
3. "Дело Даны".
4. "Дело Лортона".
5. "Дело Чэндлера".
6. "Дело Лэнгхорн".
7. "Дело Теннера".
8. "Дело Кореллы".
Общее
Уникальный идентификатор : 178321130458457763757678308883494210369 (0x862766864BBF74298E98D71C6B3E0B41)
Формат : Matroska
Версия формата : Version 2
Размер файла : 2,24 Гбайт
Продолжительность : 52 м.
Общий поток : 6179 Кбит/сек
Дата кодирования : UTC 2014-03-22 16:24:44
Программа кодирования : mkvmerge v2.9.7 ('Tenderness') built on Jul 1 2009 18:43:35
Библиотека кодирования : libebml v0.7.7 + libmatroska v0.8.1

Видео
Идентификатор : 1
Формат : AVC
Формат/Информация : Advanced Video Codec
Профиль формата : High@L4.1
Параметр CABAC формата : Да
Параметр ReFrames формата : 5 кадров
Идентификатор кодека : V_MPEG4/ISO/AVC
Продолжительность : 52 м.
Битрейт : 5351 Кбит/сек
Ширина : 1280 пикселей
Высота : 720 пикселей
Соотношение сторон : 16:9
Режим частоты кадров : Постоянный
Частота кадров : 25,000 кадров/сек
Цветовое пространство : YUV
Субдискретизация насыщенности : 4:2:0
Битовая глубина : 8 бит
Тип развёртки : Прогрессивная
Бит/(Пиксели*Кадры) : 0.232
Размер потока : 1,90 Гбайт (85%)
Библиотека кодирования : x264 core 115 r1947 b5a8ad7
Настройки программы : cabac=1 / ref=5 / deblock=1:0:0 / analyse=0x3:0x133 / me=umh / subme=8 / psy=1 / psy_rd=1.00:0.00 / mixed_ref=1 / me_range=16 / chroma_me=1 / trellis=1 / 8x8dct=1 / cqm=0 / deadzone=21,11 / fast_pskip=0 / chroma_qp_offset=-2 / threads=12 / sliced_threads=0 / nr=0 / decimate=1 / interlaced=0 / bluray_compat=0 / constrained_intra=0 / bframes=3 / b_pyramid=2 / b_adapt=1 / b_bias=0 / direct=1 / weightb=1 / open_gop=0 / weightp=2 / keyint=250 / keyint_min=25 / scenecut=40 / intra_refresh=0 / rc_lookahead=40 / rc=2pass / mbtree=1 / bitrate=5351 / ratetol=1.0 / qcomp=0.60 / qpmin=0 / qpmax=69 / qpstep=4 / cplxblur=20.0 / qblur=0.5 / ip_ratio=1.40 / aq=1:1.00
Язык : English
Default : Да
Forced : Нет

Аудио #1
Идентификатор : 2
Формат : AC-3
Формат/Информация : Audio Coding 3
Расширение режима : CM (complete main)
Параметр Endianness формата : Big
Идентификатор кодека : A_AC3
Продолжительность : 52 м.
Вид битрейта : Постоянный
Битрейт : 192 Кбит/сек
Каналы : 2 канала
Расположение каналов : Front: L R
Частота : 48,0 КГц
Битовая глубина : 16 бит
Метод сжатия : С потерями
Размер потока : 71,4 Мбайт (3%)
Заголовок : Чадов
Язык : Russian
Default : Да
Forced : Нет

Аудио #2
Идентификатор : 3
Формат : AC-3
Формат/Информация : Audio Coding 3
Расширение режима : CM (complete main)
Параметр Endianness формата : Big
Идентификатор кодека : A_AC3
Продолжительность : 52 м.
Вид битрейта : Постоянный
Битрейт : 640 Кбит/сек
Каналы : 2 канала
Расположение каналов : Front: L R
Частота : 48,0 КГц
Битовая глубина : 16 бит
Метод сжатия : С потерями
Размер потока : 238 Мбайт (10%)
Язык : English
Default : Нет
Forced : Нет



Скачать Рейк.Раздолбай.Rake.(сезон.01).(Питер.Дункан).[2010.драма.комедия.BDRip].[720p].[VO.(М.Чадов)]+[Eng].torrent без регистрации
Золото ЗОЛОТАЯ РАЗДАЧА! СКАЧАННОЕ НЕ ЗАСЧИТЫВАЕТСЯ! Золото
Дата: Зарегистрирован   [ Тип: внутренний ] Как тут cкачать?
MAGNET ссылка
MAGNET ссылка


Скачать .torrent

46 KB

Статус: проверено DHT
Скачан: торрент - 5 раз, раздача полностью - 2 раз
Размер: 17,98 GB
Оценка:  - (Голосов: 0)
Поблагодарили: 0
Поделиться ссылкой на эту раздачу с друзьями:
В контактеFacebookОдноклассникиTwitterLivejournalМой МирLiveinternet
 

 
Показать сообщения:    


Вы не можете начинать темы
Вы не можете отвечать на сообщения
Вы не можете редактировать свои сообщения
Вы не можете удалять свои сообщения
Вы не можете голосовать в опросах
Вы не можете прикреплять файлы к сообщениям
Вы можете скачивать файлы