Loading...
Error

Скачать Эш против Зловещих мертвецов / Ash vs Evil Dead (Сезон 02, серии 01-08 из 10) (Майкл Херст, Рик Джейкобсон, Сэм Рэйми) [2016, ужасы, боевик, комедия, WEB-DL] [1080p] [MVO] (HamsterStudio) торрент без регистрации

 
Статистика раздачи
Размер:  14,69 GB   |    Скачан:  46 раз
Сидов:  1  [  0 KB/s  ]  
 
Автор Сообщение

leon030982

[] 


Эш против Зловещих мертвецов | Ash vs Evil Dead


• Год выпуска: 2016
• Страна: США
• Жанр: ужасы, боевик, комедия
• Продолжительность: ~ 00:43:00
• Перевод: Профессиональный (многоголосый, закадровый) [HamsterStudio]

• Режиссёр: Майкл Херст, Рик Джейкобсон, Сэм Рэйми

• В ролях: Брюс Кэмпбелл, Джилл Мари Джонс, Дэна ДеЛоренцо, Люси Лоулесс, Рэй Сантьяго, Мими Роджерс, Хемки Мадера, Фил Пелетон, Дэмиен Гарви

• Описание: 30 лет он избегал ответственности за свои поступки, упорно старался не взрослеть и не особо стремился вновь встретиться с ожившими мертвецами. Но, совершив ошибку, Эш узнает, что проказа кандарийских демонов угрожает распространиться по всей планете и ему снова приходится вступить в схватку с полчищами мертвой нечисти. Реки крови, горы трупов и, конечно, искрометный черный юмор – отличный подарок всем любителям ужасов, комедий, крови, треша и угара.



• Качество: WEB-DL 1080p
• Формат: MKV
• Видео: MPEG-4 AVC, ~ 11620 Кбит/с, 1920x1080, 23.976 fps
• Аудио : AC3, 48 kHz, 6 ch, 384 kbps, CBR - Rus
• Субтитры: отсутствуют

Торент обновлен! Добавлена 8-я серии
Озвучка: Алексей Соловьёв, Катерина Апрельская и Андрей Жариков
Автор перевода: Антон Кедров
Монтаж и сведение звука: Роман Мырон

Имеется Реклама

General
Unique ID : 243211581219166747019311670605127172065 (0xB6F8D8C1EEBCCA8B9E7B76BBC0D53FE1)
Complete name : E:\Ash.vs.Evil.Dead.S02E01.1080p.WEB-DL.HamsterStudio.mkv
Format : Matroska
Format version : Version 4 / Version 2
File size : 2.88 GiB
Duration : 34mn 20s
Overall bit rate mode : Variable
Overall bit rate : 12.0 Mbps
Encoded date : UTC 2016-09-28 20:08:57
Writing application : mkvmerge v7.8.0 ('River Man') 64bit built on Mar 27 2015 16:31:37
Writing library : libebml v1.3.1 + libmatroska v1.4.2

Video
ID : 1
Format : AVC
Format/Info : Advanced Video Codec
Format profile : Main@L4
Format settings, CABAC : Yes
Format settings, ReFrames : 3 frames
Codec ID : V_MPEG4/ISO/AVC
Duration : 34mn 20s
Bit rate mode : Variable
Bit rate : 11.4 Mbps
Maximum bit rate : 16.0 Mbps
Width : 1 920 pixels
Height : 1 080 pixels
Display aspect ratio : 16:9
Frame rate mode : Constant
Frame rate : 23.976 fps
Standard : NTSC
Color space : YUV
Chroma subsampling : 4:2:0
Bit depth : 8 bits
Scan type : Progressive
Bits/(Pixel*Frame) : 0.229
Stream size : 2.73 GiB (95%)
Default : Yes
Forced : No
Color range : Limited

Audio
ID : 3
Format : AC-3
Format/Info : Audio Coding 3
Mode extension : CM (complete main)
Format settings, Endianness : Big
Codec ID : A_AC3
Duration : 34mn 20s
Bit rate mode : Constant
Bit rate : 384 Kbps
Channel(s) : 6 channels
Channel positions : Front: L C R, Side: L R, LFE
Sampling rate : 48.0 KHz
Compression mode : Lossy
Stream size : 94.3 MiB (3%)
Title : HamsterStudio
Language : Russian
Default : Yes
Forced : Yes

Когда раздача ведётся путём добавления новых серий, при каждом добавлении создётся новый торрент. Чтобы начать докачку новой серии, пользователям необходимо сделать следующее:
(1) остановить скачивание,
(2) удалить старый торрент у себя из клиента (старые серии удалять не надо),
(3) скачать новый торрент и запустить его у себя в клиенте вместо старого, при этом указать клиенту путь в старую папку, куда и должно происходить скачивание новых серий.
Ваш клиент при этом должен произвести хеширование (проверку) старой папки (если не производит сам - помогите ему сделать это), и будет докачивать только те серии, которых у вас ещё нет. Старые серии при этом не удаляются, а продолжают раздаваться!
Eсли вы уже удалили старые серии, то предотвратить повторную закачку старых серий можно, отжав галочку в соответсвующих местах при запуске нового торрента. По возможности, желательно не удалять старые серии как можно дольше, чтобы релизёр не столько продолжал раздавать старые серии, а смог сконцентрироваться на новых.



Скачать Эш.против.Зловещих.мертвецов.Ash.vs.Evil.Dead.(Сезон.02.серии.01-08.из.10).(Майкл.Херст.Рик.Джейкобсон.Сэм.Рэйми).[2016.ужасы.боевик.комедия.WEB-DL].[1080p].[MVO].(HamsterStudio).torrent без регистрации
Золото ЗОЛОТАЯ РАЗДАЧА! СКАЧАННОЕ НЕ ЗАСЧИТЫВАЕТСЯ! Золото
Дата: Зарегистрирован   [ Тип: внутренний ] Как тут cкачать?
MAGNET ссылка
MAGNET ссылка


Скачать .torrent

75 KB

Статус: проверено DHT
Скачан: торрент - 46 раз, раздача полностью - 3 раз
Размер: 14,69 GB
Оценка:  - (Голосов: 0)
Поблагодарили: 3
Поделиться ссылкой на эту раздачу с друзьями:
В контактеFacebookОдноклассникиTwitterLivejournalМой МирLiveinternet
 

 
Показать сообщения:    


Вы не можете начинать темы
Вы не можете отвечать на сообщения
Вы не можете редактировать свои сообщения
Вы не можете удалять свои сообщения
Вы не можете голосовать в опросах
Вы не можете прикреплять файлы к сообщениям
Вы можете скачивать файлы