Loading...
Error

Скачать Эш против Зловещих мертвецов / Ash vs Evil Dead (Сезон 02, серии 01-08 из 10) (Майкл Херст, Рик Джейкобсон, Сэм Рэйми) [2015, Чёрная комедия, боевик, ужасы, WEBRip] [MVO] (Jaskier) + [Original] торрент без регистрации

 
Статистика раздачи
Размер:  2,67 GB   |    Скачан:  59 раз
Сидов:  1  [  0 KB/s  ]  
 
Автор Сообщение

leon030982

[] 

Эш против Зловещих мертвецов / Ash vs Evil Dead



Год выпуска: 2016
Страна: США
Жанр: Чёрная комедия, боевик, ужасы
Продолжительность: ~00:30:00 мин
Перевод: Профессиональный (многоголосый закадровый) Jaskier 18+ ненормативная лексика
Субтитры: Есть (Английские)

Режиссёр: Майкл Херст / Michael Hurst, Рик Джейкобсон / Rick Jacobson, Сэм Рэйми / Sam Raimi

В ролях: Брюс Кэмпбелл, Джилл Мари Джонс, Дэна ДеЛоренцо, Люси Лоулесс, Рэй Сантьяго, Мими Роджерс, Хемки Мадера, Фил Пелетон, Дэмиен Гарви

Описание: 30 лет он избегал ответственности за свои поступки, упорно старался не взрослеть и не особо стремился вновь встретиться с ожившими мертвецами. Но, совершив ошибку, Эш узнает, что проказа кандарийских демонов угрожает распространиться по всей планете и ему снова приходится вступить в схватку с полчищами мертвой нечисти. Реки крови, горы трупов и, конечно, искрометный черный юмор – отличный подарок на Хэллоуин всем любителям ужасов, комедий, крови, треша и угара.


Качество: WEBRip
Формат: AVI
Видео кодек: XviD
Аудио кодек: AC3, MP3
Видео: AVC, 720x408 (16:9), 23.976 fps, ~1600kbps ~0.163 bit/pixel
Аудио 1: Dolby AC3 48000Hz stereo 192Kbps Русский
Аудио 2: Lame MP3 48000Hz stereo 192Kbps Оригинал (Английский)

Торент обновлен. Добавлена 8-я серия!

Код:

General
Complete name               : XXXXXXXXX\Ash.vs.Evil.Dead.S02E01.XviD.AMZN.WEBRip-Jaskier.avi
Format                      : AVI
Format/Info                 : Audio Video Interleave
File size                   : 375 MiB
Duration                    : 33mn 55s
Overall bit rate            : 1 547 Kbps
Writing application         : VirtualDubModRus 1.5.10.2 (build 2540/release)
Writing library             : VirtualDubMod build 2540/release
Video
ID                          : 0
Format                      : MPEG-4 Visual
Format profile              : Advanced Simple@L5
Format settings, BVOP       : 1
Format settings, QPel       : No
Format settings, GMC        : No warppoints
Format settings, Matrix     : Default (H.263)
Codec ID                    : XVID
Codec ID/Hint               : XviD
Duration                    : 33mn 55s
Bit rate                    : 1 149 Kbps
Width                       : 720 pixels
Height                      : 408 pixels
Display aspect ratio        : 16:9
Frame rate                  : 23.976 (23976/1000) fps
Color space                 : YUV
Chroma subsampling          : 4:2:0
Bit depth                   : 8 bits
Scan type                   : Progressive
Compression mode            : Lossy
Bits/(Pixel*Frame)          : 0.163
Stream size                 : 279 MiB (74%)
Writing library             : XviD 1.2.1 (UTC 2008-12-04)
Audio #1
ID                          : 1
Format                      : AC-3
Format/Info                 : Audio Coding 3
Mode extension              : CM (complete main)
Format settings, Endianness : Big
Codec ID                    : 2000
Duration                    : 33mn 55s
Bit rate mode               : Constant
Bit rate                    : 192 Kbps
Channel(s)                  : 2 channels
Channel positions           : Front: L R
Sampling rate               : 48.0 KHz
Frame rate                  : 31.250 fps (1536 spf)
Compression mode            : Lossy
Stream size                 : 46.6 MiB (12%)
Alignment                   : Split accross interleaves
Interleave, duration        : 42 ms (1.00 video frame)
Interleave, preload duratio : 500 ms
Audio #2
ID                          : 2
Format                      : MPEG Audio
Format version              : Version 1
Format profile              : Layer 3
Codec ID                    : 55
Codec ID/Hint               : MP3
Duration                    : 33mn 55s
Bit rate mode               : Constant
Bit rate                    : 192 Kbps
Channel(s)                  : 2 channels
Sampling rate               : 48.0 KHz
Compression mode            : Lossy
Stream size                 : 46.6 MiB (12%)
Alignment                   : Aligned on interleaves
Interleave, duration        : 42 ms (1.00 video frame)
Interleave, preload duratio : 504 ms
Writing library             : LAME3.98r
Encoding settings           : -m s -V 4 -q 0 -lowpass 18.6 -b 192
Когда раздача ведётся путём добавления новых серий, при каждом добавлении создётся новый торрент. Чтобы начать докачку новой серии, пользователям необходимо сделать следующее:
(1) остановить скачивание,
(2) удалить старый торрент у себя из клиента (старые серии удалять не надо),
(3) скачать новый торрент и запустить его у себя в клиенте вместо старого, при этом указать клиенту путь в старую папку, куда и должно происходить скачивание новых серий.
Ваш клиент при этом должен произвести хеширование (проверку) старой папки (если не производит сам - помогите ему сделать это), и будет докачивать только те серии, которых у вас ещё нет. Старые серии при этом не удаляются, а продолжают раздаваться!
Eсли вы уже удалили старые серии, то предотвратить повторную закачку старых серий можно, отжав галочку в соответсвующих местах при запуске нового торрента. По возможности, желательно не удалять старые серии как можно дольше, чтобы релизёр не столько продолжал раздавать старые серии, а смог сконцентрироваться на новых.



Скачать Эш.против.Зловещих.мертвецов.Ash.vs.Evil.Dead.(Сезон.02.серии.01-08.из.10).(Майкл.Херст.Рик.Джейкобсон.Сэм.Рэйми).[2015.Чёрная.комедия.боевик.ужасы.WEBRip].[MVO].(Jaskier).+.[Original].torrent без регистрации
Золото ЗОЛОТАЯ РАЗДАЧА! СКАЧАННОЕ НЕ ЗАСЧИТЫВАЕТСЯ! Золото
Дата: Зарегистрирован   [ Тип: внутренний ] Как тут cкачать?
MAGNET ссылка
MAGNET ссылка


Скачать .torrent

15 KB

Статус: проверено DHT
Скачан: торрент - 59 раз, раздача полностью - 0 раз
Размер: 2,67 GB
Оценка:  5 (Голосов: 1)
Поблагодарили: 2
Поделиться ссылкой на эту раздачу с друзьями:
В контактеFacebookОдноклассникиTwitterLivejournalМой МирLiveinternet
 

 
Показать сообщения:    


Вы не можете начинать темы
Вы не можете отвечать на сообщения
Вы не можете редактировать свои сообщения
Вы не можете удалять свои сообщения
Вы не можете голосовать в опросах
Вы не можете прикреплять файлы к сообщениям
Вы можете скачивать файлы