Loading...
Error

/ Ash vs Evil Dead ( 02, 01-08 10) ( / Michael Hurst, / Rick Jacobson, / Sam Raimi) [2016, ׸ , , , WEBRip 720p] [MVO] (Jaskier) + [Original]

 
10,18 GB   |    :  119
1  [  0 KB/s  ]  
 

leon030982

[] 

/ Ash vs Evil Dead



: 2016
:
: ׸ , ,
: ~00:30:00
: ( ) Jaskier 18+
: ()
: / Michael Hurst, / Rick Jacobson, / Sam Raimi
: , , , , , , , ,

: 30 , . , , , . , , , , , , .


: WEBRip 720p
: MKV
: h.264
: AC3
: AVC, 1280x720 (16:9), 23.976 fps, ~6208kbps ~0.236 bit/pixel
1: Dolby AC3 48000Hz stereo 192Kbps
2: Dolby AC3 48000Hz 6ch 640Kbps ()

. 8- !
, . , :
(1) ,
(2) ( ),
(3) , , .
() ( - ), , . , !
E , , . , , , .

:

General
Unique ID : 170446347744787887845006936450556480345 (0x803AC5C2C6F0032390E4345913DFCB59)
Complete name : xxxxxxxxxx\Ash.vs.Evil.Dead.S02E01.720p.AMZN.WEBRip.DD5.1.x264-Jaskier.mkv
Format : Matroska
Format version : Version 4 / Version 2
File size : 1.46 GiB
Duration : 33mn 55s
Overall bit rate : 6 159 Kbps
Encoded date : UTC 2016-09-30 19:32:01
Writing application : mkvmerge v8.2.0 ('World of Adventure') 64bit
Writing library : libebml v1.3.1 + libmatroska v1.4.2
Video
ID : 1
Format : AVC
Format/Info : Advanced Video Codec
Format profile : High@L4.1
Format settings, CABAC : Yes
Format settings, ReFrames : 9 frames
Codec ID : V_MPEG4/ISO/AVC
Duration : 33mn 55s
Bit rate : 5 204 Kbps
Width : 1 280 pixels
Height : 720 pixels
Display aspect ratio : 16:9
Frame rate mode : Constant
Frame rate : 23.976 (24000/1001) fps
Color space : YUV
Chroma subsampling : 4:2:0
Bit depth : 8 bits
Scan type : Progressive
Bits/(Pixel*Frame) : 0.236
Stream size : 1.23 GiB (85%)
Title : Original
Writing library : x264 core 148 r2721+7 72d53ab / tmod 162ad1b X86_64
Encoding settings : cabac=1 / ref=9 / deblock=1:-3:-3 / analyse=0x3:0x113 / me=umh / subme=10 / psy=1 / fade_compensate=0.00 / psy_rd=1.05:0.15 / mixed_ref=1 / me_range=36 / chroma_me=1 / trellis=2 / 8x8dct=1 / cqm=0 / deadzone=6,6 / fast_pskip=0 / chroma_qp_offset=-3 / threads=12 / lookahead_threads=2 / sliced_threads=0 / nr=0 / decimate=0 / interlaced=0 / bluray_compat=0 / constrained_intra=0 / fgo=0 / bframes=9 / b_pyramid=2 / b_adapt=2 / b_bias=0 / direct=3 / weightb=1 / open_gop=0 / weightp=2 / keyint=250 / keyint_min=23 / scenecut=40 / intra_refresh=0 / rc=crf / mbtree=0 / crf=18.0000 / qcomp=0.70 / qpmin=0:0:0 / qpmax=69:69:69 / qpstep=4 / ip_ratio=1.10 / pb_ratio=1.10 / aq=3:0.75 / aq-sensitivity=10.00 / aq-factor=1.00:1.00:1.00 / aq2=0 / aq3=0
Language : English
Default : Yes
Forced : No
Audio #1
ID : 2
Format : AC-3
Format/Info : Audio Coding 3
Mode extension : CM (complete main)
Format settings, Endianness : Big
Codec ID : A_AC3
Duration : 33mn 55s
Bit rate mode : Constant
Bit rate : 192 Kbps
Channel(s) : 2 channels
Channel positions : Front: L R
Sampling rate : 48.0 KHz
Frame rate : 31.250 fps (1536 spf)
Compression mode : Lossy
Stream size : 46.6 MiB (3%)
Title : Jaskier
Language : Russian
Default : Yes
Forced : No
Audio #2
ID : 3
Format : E-AC-3
Format/Info : Audio Coding 3
Format settings, Endianness : Big
Codec ID : A_EAC3
Duration : 33mn 55s
Bit rate mode : Constant
Bit rate : 640 Kbps
Channel(s) : 6 channels
Channel positions : Front: L C R, Side: L R, LFE
Sampling rate : 48.0 KHz
Frame rate : 187.500 fps (256 spf)
Compression mode : Lossy
Stream size : 155 MiB (10%)
Title : Original
Language : English
Default : No
Forced : No
Text #1
ID : 4
Format : UTF-8
Codec ID : S_TEXT/UTF8
Codec ID/Info : UTF-8 Plain Text
Title : Original
Language : English
Default : No
Forced : No
Text #2
ID : 5
Format : UTF-8
Codec ID : S_TEXT/UTF8
Codec ID/Info : UTF-8 Plain Text
Title : Original (SDH)
Language : English
Default : No
Forced : No



....Ash.vs.Evil.Dead.(.02..01-08..10).(..Michael.Hurst...Rick.Jacobson...Sam.Raimi).[2016.׸....WEBRip.720p].[MVO].(Jaskier).+.[Original].torrent
  ! ! 
:   [ : ] c?
MAGNET
MAGNET


.torrent

27 KB

: DHT
: - 119 , - 1
: 10,18 GB
5 (: 1)
: 4
:
 FacebookTwitterLivejournal Liveinternet
 

 
: