Loading...
Error

Скачать Эш против Зловещих мертвецов / Ash vs Evil Dead (Сезон 02, серии 01-04 из 10) (Майкл Херст, Рик Джейкобсон, Сэм Рэйми) [2015, ужасы, боевик, комедия, WEBRip] [1080p] [DVO] (Кубик в Кубе) торрент без регистрации

 
Статистика раздачи
Размер:  9,75 GB   |    Скачан:  30 раз
Сидов:  1  [  0 KB/s  ]  
 
Автор Сообщение

leon030982

[] 


Эш против Зловещих мертвецов | Ash vs Evil Dead


• Год выпуска: 2016
• Страна: США
• Жанр: ужасы, боевик, комедия
• Продолжительность: ~ 00:43:00
• Перевод: Профессиональный (двухголосый) • Кубик в Кубе
• Субтитры: Английские

• Режиссёр: Майкл Херст, Рик Джейкобсон, Сэм Рэйми

• В ролях: Брюс Кэмпбелл, Джилл Мари Джонс, Дэна ДеЛоренцо, Люси Лоулесс, Рэй Сантьяго, Мими Роджерс, Хемки Мадера, Фил Пелетон, Дэмиен Гарви

• Описание: 30 лет он избегал ответственности за свои поступки, упорно старался не взрослеть и не особо стремился вновь встретиться с ожившими мертвецами. Но, совершив ошибку, Эш узнает, что проказа кандарийских демонов угрожает распространиться по всей планете и ему снова приходится вступить в схватку с полчищами мертвой нечисти. Реки крови, горы трупов и, конечно, искрометный черный юмор – отличный подарок всем любителям ужасов, комедий, крови, треша и угара.


Перевод: Инга Бу
Работа со звуком: messafan


• Качество: WEBRip 1080p
• Формат: MKV
• Видео: AVC, 1920x1080(16:9), 11400 Кбит/с, 23.976 fps
• Аудио : AC3, 48.0 KHz, 6 ch, 384 Кбит/с • Rus
• Аудио : AC3, 48.0 KHz, 6 ch, 384 Кбит/с • Eng

Торент обновлен! Добавлена 4-я серия

General
Unique ID : 203263615411694681386257904620104029194 (0x98EB25FA6F44A4A3BAC7A5D2FDA3940A)
Complete name : E:\Ash vs Evil Dead (Season 02) 1080 CasStudio.TV\Ash.vs.Evil.Dead.S02E01.1080p.WEBRip.KvK.CasStudio.TV.mkv
Format : Matroska
Format version : Version 2
File size : 2.95 GiB
Duration : 33mn 55s
Overall bit rate : 12.4 Mbps
Encoded date : UTC 2016-10-01 17:37:03
Writing application : mkvmerge v7.8.0 ('River Man') 32bit built on Apr 3 2015 12:11:22
Writing library : libebml v1.3.1 + libmatroska v1.4.2

Video
ID : 1
Format : AVC
Format/Info : Advanced Video Codec
Format profile : High@L4.1
Format settings, CABAC : Yes
Format settings, ReFrames : 4 frames
Codec ID : V_MPEG4/ISO/AVC
Duration : 33mn 55s
Bit rate : 11.4 Mbps
Width : 1 920 pixels
Height : 1 080 pixels
Display aspect ratio : 16:9
Frame rate mode : Constant
Frame rate : 23.976 fps
Color space : YUV
Chroma subsampling : 4:2:0
Bit depth : 8 bits
Scan type : Progressive
Bits/(Pixel*Frame) : 0.230
Stream size : 2.71 GiB (92%)
Writing library : x264 core 148 r2721+7 72d53ab / tmod 162ad1b X86_64
Encoding settings : cabac=1 / ref=4 / deblock=1:-3:-3 / analyse=0x3:0x133 / me=umh / subme=11 / psy=1 / fade_compensate=0.00 / psy_rd=1.05:0.15 / mixed_ref=1 / me_range=48 / chroma_me=1 / trellis=2 / 8x8dct=1 / cqm=0 / deadzone=21,11 / fast_pskip=0 / chroma_qp_offset=-3 / threads=12 / lookahead_threads=3 / sliced_threads=0 / nr=0 / decimate=0 / interlaced=0 / bluray_compat=0 / constrained_intra=0 / fgo=0 / bframes=10 / b_pyramid=2 / b_adapt=2 / b_bias=0 / direct=3 / weightb=1 / open_gop=0 / weightp=2 / keyint=250 / keyint_min=23 / scenecut=40 / intra_refresh=0 / rc=crf / mbtree=0 / crf=17.0000 / qcomp=0.75 / qpmin=0:0:0 / qpmax=69:69:69 / qpstep=4 / ip_ratio=1.40 / pb_ratio=1.30 / aq=3:0.70 / aq-sensitivity=10.00 / aq-factor=1.00:1.00:1.00 / aq2=0 / aq3=0
Language : English
Default : Yes
Forced : No

Audio #1
ID : 2
Format : AC-3
Format/Info : Audio Coding 3
Mode extension : CM (complete main)
Format settings, Endianness : Big
Codec ID : A_AC3
Duration : 33mn 55s
Bit rate mode : Constant
Bit rate : 384 Kbps
Channel(s) : 6 channels
Channel positions : Front: L C R, Side: L R, LFE
Sampling rate : 48.0 KHz
Compression mode : Lossy
Stream size : 93.2 MiB (3%)
Language : Russian
Default : Yes
Forced : No

Audio #2
ID : 3
Format : AC-3
Format/Info : Audio Coding 3
Mode extension : CM (complete main)
Format settings, Endianness : Big
Codec ID : A_AC3
Duration : 33mn 55s
Bit rate mode : Constant
Bit rate : 384 Kbps
Channel(s) : 6 channels
Channel positions : Front: L C R, Side: L R, LFE
Sampling rate : 48.0 KHz
Compression mode : Lossy
Stream size : 93.2 MiB (3%)
Language : English
Default : No
Forced : No

Text
ID : 4
Format : UTF-8
Codec ID : S_TEXT/UTF8
Codec ID/Info : UTF-8 Plain Text
Language : English
Default : No
Forced : No
Когда раздача ведётся путём добавления новых серий, при каждом добавлении создётся новый торрент. Чтобы начать докачку новой серии, пользователям необходимо сделать следующее:
(1) остановить скачивание,
(2) удалить старый торрент у себя из клиента (старые серии удалять не надо),
(3) скачать новый торрент и запустить его у себя в клиенте вместо старого, при этом указать клиенту путь в старую папку, куда и должно происходить скачивание новых серий.
Ваш клиент при этом должен произвести хеширование (проверку) старой папки (если не производит сам - помогите ему сделать это), и будет докачивать только те серии, которых у вас ещё нет. Старые серии при этом не удаляются, а продолжают раздаваться!
Eсли вы уже удалили старые серии, то предотвратить повторную закачку старых серий можно, отжав галочку в соответсвующих местах при запуске нового торрента. По возможности, желательно не удалять старые серии как можно дольше, чтобы релизёр не столько продолжал раздавать старые серии, а смог сконцентрироваться на новых.



Скачать Эш.против.Зловещих.мертвецов.Ash.vs.Evil.Dead.(Сезон.02.серии.01-04.из.10).(Майкл.Херст.Рик.Джейкобсон.Сэм.Рэйми).[2015.ужасы.боевик.комедия.WEBRip].[1080p].[DVO].(Кубик.в.Кубе).torrent без регистрации
Золото ЗОЛОТАЯ РАЗДАЧА! СКАЧАННОЕ НЕ ЗАСЧИТЫВАЕТСЯ! Золото
Дата: Зарегистрирован   [ Тип: внутренний ] Как тут cкачать?
MAGNET ссылка
MAGNET ссылка


Скачать .torrent

50 KB

Статус: проверено DHT
Скачан: торрент - 30 раз, раздача полностью - 14 раз
Размер: 9,75 GB
Оценка:  5 (Голосов: 1)
Поблагодарили: 1
Поделиться ссылкой на эту раздачу с друзьями:
В контактеFacebookОдноклассникиTwitterLivejournalМой МирLiveinternet
 

 
Показать сообщения:    


Вы не можете начинать темы
Вы не можете отвечать на сообщения
Вы не можете редактировать свои сообщения
Вы не можете удалять свои сообщения
Вы не можете голосовать в опросах
Вы не можете прикреплять файлы к сообщениям
Вы можете скачивать файлы