Loading...
Error

Скачать Мир Дикого запада / Westworld (Сезон 01, серии 01-09 из 10) (Джонатан Нолан, Джонни Кэмпбелл, Ричард Дж. Льюис) [2016, фантастика, триллер, вестерн, HDTV] [1080p] [DUB] (Amedia) торрент без регистрации

 
Статистика раздачи
Размер:  48,91 GB   |    Скачан:  276 раз
Сидов:  3  [  0 KB/s  ]   Личеров:  1  [  155 KB/s  ]  
 
Автор Сообщение

leon030982

[] 


═╬ Мир Дикого запада / Westworld ╬═

Информация о фильме
✦ Год выхода: 2016
✦ Жанр: фантастика, триллер, вестерн
✦ Выпушено: США, Bad Robot, Jerry Weintraub Productions, Kilter Films, Warner Bros. Television
✦ Продолжительность: ~ 01:08:00 серия
✦ Перевод: Профессиональный (дублированный) - Amedia (Кравец)

✦ Режиссер: Джонатан Нолан, Джонни Кэмпбелл, Ричард Дж. Льюис
✦ Сценарий: Майкл Крайтон, Джонатан Нолан, Лиза Джой

✦ В ролях: Энтони Хопкинс, Эд Харрис, Эван Рэйчел Вуд, Джеймс Марсден, Тэнди Ньютон, Джеффри Райт, Тесса Томпсон, Джимми Симпсон, Родриго Санторо, Шеннон Мари Вудворд

Описание фильма
В футуристическом парке развлечений андроиды на фоне для исторических декораций становятся рабами людей, выполняя рутинные задания, пока в один момент сбой в программе не превращает их в опасных убийц.



Информация о файле
✦ Качество: HDTV 1080p
✦ Формат: | MKV | x264 |
✦ Видео: MPEG-4 AVC, ~ 10000 Кбит/с, 1920x1074, 25.000 fps
✦ Аудио Rus: AC3 | 48 KHz | 2.0 (Front: L R) | ~192 kbps
✦ Аудио Eng: AC3 | 48 KHz | 5.1 (Front: L С R Side: L R) + LFE | ~384 kbps
✦ Субтитры: Русские (амедиа)

Торент обновлен. Добавлена 9-я серия!

релиз от qqss44
Озвучено студией Кравец-Рекордз по заказу Амедиа
General
Unique ID : 174446409403736268837252466986842844242 (0x833D2806F4E2D06A89321486BDBBEC52)
Complete name : E:\WESTWORLD (Season 01) DUB 1080\Westworld.[S01E01].HD1080.DUB.[qqss44].mkv
Format : Matroska
Format version : Version 2
File size : 4.98 GiB
Duration : 1h 5mn
Overall bit rate : 10.9 Mbps
Encoded date : UTC 2016-10-03 07:40:56
Writing application : mkvmerge v7.9.0 ('Birds') 64bit
Writing library : libebml v1.3.1 + libmatroska v1.4.2

Video
ID : 1
Format : AVC
Format/Info : Advanced Video Codec
Format profile : High@L4.1
Format settings, CABAC : Yes
Format settings, ReFrames : 4 frames
Codec ID : V_MPEG4/ISO/AVC
Duration : 1h 5mn
Bit rate : 10.1 Mbps
Width : 1 920 pixels
Height : 1 074 pixels
Display aspect ratio : 16:9
Frame rate mode : Constant
Frame rate : 23.438 fps
Original frame rate : 25.000 fps
Color space : YUV
Chroma subsampling : 4:2:0
Bit depth : 8 bits
Scan type : Progressive
Bits/(Pixel*Frame) : 0.209
Stream size : 4.62 GiB (93%)
Writing library : x264 core 148 r2705+54 9f484c1 t_mod_Custom [8-bit@all X86_64]
Encoding settings : cabac=1 / ref=4 / deblock=1:-3:-3 / analyse=0x3:0x113 / me=umh / subme=11 / psy=1 / fade_compensate=0.00 / psy_rd=1.00:0.00 / mixed_ref=1 / me_range=32 / chroma_me=1 / trellis=2 / 8x8dct=1 / cqm=0 / deadzone=21,11 / fast_pskip=0 / chroma_qp_offset=-2 / threads=24 / lookahead_threads=4 / sliced_threads=0 / nr=0 / decimate=0 / interlaced=0 / bluray_compat=0 / constrained_intra=0 / fgo=0 / bframes=8 / b_pyramid=2 / b_adapt=2 / b_bias=0 / direct=3 / weightb=1 / open_gop=0 / weightp=2 / keyint=250 / keyint_min=23 / scenecut=40 / intra_refresh=0 / rc_lookahead=60 / rc=crf / mbtree=0 / crf=17.0000 / qcomp=0.60 / qpmin=0:0:0 / qpmax=69:69:69 / qpstep=4 / vbv_maxrate=62500 / vbv_bufsize=78125 / crf_max=0.0 / nal_hrd=none / filler=0 / ip_ratio=1.40 / pb_ratio=1.30 / aq=3:0.80 / aq-sensitivity=10.00 / aq-factor=1.00:1.00:1.00 / aq2=0 / aq3=0
Language : English
Default : Yes
Forced : No
Color range : Limited
Matrix coefficients : BT.709

Audio #1
ID : 2
Format : AC-3
Format/Info : Audio Coding 3
Mode extension : CM (complete main)
Format settings, Endianness : Big
Codec ID : A_AC3
Duration : 1h 5mn
Bit rate mode : Constant
Bit rate : 192 Kbps
Channel(s) : 2 channels
Channel positions : Front: L R
Sampling rate : 48.0 KHz
Compression mode : Lossy
Stream size : 89.8 MiB (2%)
Language : Russian
Default : Yes
Forced : No

Audio #2
ID : 3
Format : AC-3
Format/Info : Audio Coding 3
Mode extension : CM (complete main)
Format settings, Endianness : Big
Codec ID : A_AC3
Duration : 1h 5mn
Bit rate mode : Constant
Bit rate : 384 Kbps
Channel(s) : 6 channels
Channel positions : Front: L C R, Side: L R, LFE
Sampling rate : 48.0 KHz
Compression mode : Lossy
Stream size : 180 MiB (4%)
Language : English
Default : No
Forced : No

Text
ID : 4
Format : UTF-8
Codec ID : S_TEXT/UTF8
Codec ID/Info : UTF-8 Plain Text
Language : Russian
Default : No
Forced : No
Когда раздача ведётся путём добавления новых серий, при каждом добавлении создётся новый торрент. Чтобы начать докачку новой серии, пользователям необходимо сделать следующее:
(1) остановить скачивание,
(2) удалить старый торрент у себя из клиента (старые серии удалять не надо),
(3) скачать новый торрент и запустить его у себя в клиенте вместо старого, при этом указать клиенту путь в старую папку, куда и должно происходить скачивание новых серий.
Ваш клиент при этом должен произвести хеширование (проверку) старой папки (если не производит сам - помогите ему сделать это), и будет докачивать только те серии, которых у вас ещё нет. Старые серии при этом не удаляются, а продолжают раздаваться!
Eсли вы уже удалили старые серии, то предотвратить повторную закачку старых серий можно, отжав галочку в соответсвующих местах при запуске нового торрента. По возможности, желательно не удалять старые серии как можно дольше, чтобы релизёр не столько продолжал раздавать старые серии, а смог сконцентрироваться на новых.



Скачать Мир.Дикого.запада.Westworld.(Сезон.01.серии.01-09.из.10).(Джонатан.Нолан.Джонни.Кэмпбелл.Ричард.Дж.Льюис).[2016.фантастика.триллер.вестерн.HDTV].[1080p].[DUB].(Amedia).torrent без регистрации
Золото ЗОЛОТАЯ РАЗДАЧА! СКАЧАННОЕ НЕ ЗАСЧИТЫВАЕТСЯ! Золото
Дата: Зарегистрирован   [ Тип: внутренний ] Как тут cкачать?
MAGNET ссылка
MAGNET ссылка


Скачать .torrent

247 KB

Статус: проверено DHT
Скачан: торрент - 276 раз, раздача полностью - 69 раз
Размер: 48,91 GB
Оценка:  5 (Голосов: 1)
Поблагодарили: 6
Поделиться ссылкой на эту раздачу с друзьями:
В контактеFacebookОдноклассникиTwitterLivejournalМой МирLiveinternet
 

 
Показать сообщения:    


Вы не можете начинать темы
Вы не можете отвечать на сообщения
Вы не можете редактировать свои сообщения
Вы не можете удалять свои сообщения
Вы не можете голосовать в опросах
Вы не можете прикреплять файлы к сообщениям
Вы можете скачивать файлы