Loading...
Error

Скачать Мир Дикого запада / Westworld (Сезон 01, серии 01-09 из 10) (Джонатан Нолан, Джонни Кэмпбелл, Ричард Дж. Льюис) [2016, фантастика, триллер, вестерн, WEB-DLRip] [MVO] (AlexFilm) торрент без регистрации

 
Статистика раздачи
Размер:  6,29 GB   |    Скачан:  208 раз
Сидов:  2  [  0 KB/s  ]   Личеров:  1  [  0 KB/s  ]  
 
Автор Сообщение

leon030982

[] 



═╬ Мир Дикого запада / Westworld ╬═


Информация о фильме

✦ Год выхода: 2016
✦ Жанр: фантастика, триллер, вестерн
✦ Выпушено: США, Bad Robot, Jerry Weintraub Productions, Kilter Films, Warner Bros. Television
✦ Продолжительность: ~ 01:08:00 серия
✦ Перевод: Профессиональный (многоголосый, закадровый) [AlexFilm]
✦ Субтитры: нет

✦ Режиссер: Джонатан Нолан, Джонни Кэмпбелл, Ричард Дж. Льюис
✦ Сценарий: Майкл Крайтон, Джонатан Нолан, Лиза Джой

✦ В ролях: Энтони Хопкинс, Эд Харрис, Эван Рэйчел Вуд, Джеймс Марсден, Тэнди Ньютон, Джеффри Райт, Тесса Томпсон, Джимми Симпсон, Родриго Санторо, Шеннон Мари Вудворд

Описание фильма
В футуристическом парке развлечений андроиды на фоне для исторических декораций становятся рабами людей, выполняя рутинные задания, пока в один момент сбой в программе не превращает их в опасных убийц.



Информация о файле

✦ Качество: WEB-DLRip
✦ Формат: AVI
✦ Видео: 720x400 (1.80:1), 23.976 fps, XviD ~1400kbps avg, 0.19 bit/pixel
✦ Аудио Rus: MP3 | 48.0 KHz | 2 ch | 128 kbps
✦ Аудио Eng: MP3 | 48.0 KHz | 2 ch | 128 kbps

Торент обновлен! Добавлена 9-я серия!

Цитата:

Перевод: Константин Кривоногов
Монтаж и сведение звука: Михаил Суслов
Роли озвучивали:
Татьяна Манетина
Екатерина Муравицкая
Михаил Суслов
Владимир Курдов
Роман Сопко
Станислав Черсков
General
Complete name : E:\INTERNET\Westworld - Season 1 (AlexFilm) WEB-DLRip\Westworld.s01e01.WEB-DLRip.Rus.Eng.AlexFilm.avi
Format : AVI
Format/Info : Audio Video Interleave
File size : 861 MiB
Duration : 1h 11mn
Overall bit rate : 1 673 Kbps
Movie name : Westworld 1x01 @ AlexFilm
Writing application : VirtualDubMod 1.5.10.2 (build 2540/release)
Writing library : VirtualDubMod build 2540/release

Video
ID : 0
Format : MPEG-4 Visual
Format profile : Advanced Simple@L5
Format settings, BVOP : No
Format settings, QPel : No
Format settings, GMC : No warppoints
Format settings, Matrix : Default (MPEG)
Codec ID : XVID
Codec ID/Hint : XviD
Duration : 1h 11mn
Bit rate : 1 340 Kbps
Width : 720 pixels
Height : 400 pixels
Display aspect ratio : 16:9
Frame rate : 23.976 fps
Color space : YUV
Chroma subsampling : 4:2:0
Bit depth : 8 bits
Scan type : Progressive
Compression mode : Lossy
Bits/(Pixel*Frame) : 0.194
Stream size : 689 MiB (80%)
Writing library : XviD 73

Audio #1
ID : 1
Format : MPEG Audio
Format version : Version 1
Format profile : Layer 3
Mode : Joint stereo
Mode extension : MS Stereo
Codec ID : 55
Codec ID/Hint : MP3
Duration : 1h 11mn
Bit rate mode : Constant
Bit rate : 128 Kbps
Channel(s) : 2 channels
Sampling rate : 48.0 KHz
Compression mode : Lossy
Stream size : 65.9 MiB (8%)
Alignment : Aligned on interleaves
Title : Russian (AlexFilm)
Writing library : LAME3.99r
Encoding settings : -m j -V 4 -q 3 -lowpass 18 -b 128

Audio #2
ID : 2
Format : MPEG Audio
Format version : Version 1
Format profile : Layer 3
Mode : Joint stereo
Mode extension : MS Stereo
Codec ID : 55
Codec ID/Hint : MP3
Duration : 1h 11mn
Bit rate mode : Constant
Bit rate : 128 Kbps
Channel(s) : 2 channels
Sampling rate : 48.0 KHz
Compression mode : Lossy
Stream size : 65.9 MiB (8%)
Alignment : Aligned on interleaves
Title : English
Writing library : LAME3.90.3
Когда раздача ведётся путём добавления новых серий, при каждом добавлении создётся новый торрент. Чтобы начать докачку новой серии, пользователям необходимо сделать следующее:
(1) остановить скачивание,
(2) удалить старый торрент у себя из клиента (старые серии удалять не надо),
(3) скачать новый торрент и запустить его у себя в клиенте вместо старого, при этом указать клиенту путь в старую папку, куда и должно происходить скачивание новых серий.
Ваш клиент при этом должен произвести хеширование (проверку) старой папки (если не производит сам - помогите ему сделать это), и будет докачивать только те серии, которых у вас ещё нет. Старые серии при этом не удаляются, а продолжают раздаваться!
Eсли вы уже удалили старые серии, то предотвратить повторную закачку старых серий можно, отжав галочку в соответсвующих местах при запуске нового торрента. По возможности, желательно не удалять старые серии как можно дольше, чтобы релизёр не столько продолжал раздавать старые серии, а смог сконцентрироваться на новых.




Скачать Мир.Дикого.запада.Westworld.(Сезон.01.серии.01-09.из.10).(Джонатан.Нолан.Джонни.Кэмпбелл.Ричард.Дж.Льюис).[2016.фантастика.триллер.вестерн.WEB-DLRip].[MVO].(AlexFilm).torrent без регистрации
Золото ЗОЛОТАЯ РАЗДАЧА! СКАЧАННОЕ НЕ ЗАСЧИТЫВАЕТСЯ! Золото
Дата: Зарегистрирован   [ Тип: внутренний ] Как тут cкачать?
MAGNET ссылка
MAGNET ссылка


Скачать .torrent

17 KB

Статус: проверено DHT
Скачан: торрент - 208 раз, раздача полностью - 5 раз
Размер: 6,29 GB
Оценка:  5 (Голосов: 2)
Поблагодарили: 4
Поделиться ссылкой на эту раздачу с друзьями:
В контактеFacebookОдноклассникиTwitterLivejournalМой МирLiveinternet
 

 
Показать сообщения:    


Вы не можете начинать темы
Вы не можете отвечать на сообщения
Вы не можете редактировать свои сообщения
Вы не можете удалять свои сообщения
Вы не можете голосовать в опросах
Вы не можете прикреплять файлы к сообщениям
Вы можете скачивать файлы