Loading...
Error

/ Westworld ( 01) ( , , . ) [2016 ., , , , WEB-DL] [720p] [MVO] (Jaskier) + [Orig] (Eng)

 
15,59 GB   |    :  92
1  [  0 KB/s  ]  
 

leon030982

[] 

/ Westworld

: 2016
:
: , ,
: ~ 01:08:00
: ( ) Jaskier
:
: , , .

: , , , , , , , , ,

: . , , , . , , . , , . ? ?


: WEB-DL 720p
: MKV
: AVC
: AC3
: 1280x720 (16:9), 23.976 fps, ~2800kbps, ~0.124 bit/pixel
1: Dolby AC3 48000Hz 5.1 384Kbps
2: Dolby AC3 48000Hz 5.1 384Kbps ()

. 10- !

:

General
Unique ID : 172586138067491562961791024326140652544 (0x81D6E191AC1D1439BDEDBCD81CF26C00)
Complete name : Z:\HD\Westworld. Season 1 (WEB-DL l 720p l Jaskier)\Westworld.S01E01.The.Original.720p.WEB-DL.DD5.1.H.264-Jaskier.mkv
Format : Matroska
Format version : Version 2
File size : 1.79 GiB
Duration : 1h 11mn
Overall bit rate mode : Variable
Overall bit rate : 3 578 Kbps
Encoded date : UTC 2016-10-04 05:19:38
Writing application : mkvmerge v5.4.0 ('Piper') built on Mar 10 2012 13:34:39
Writing library : libebml v1.2.3 + libmatroska v1.3.0
Video
ID : 1
Format : AVC
Format/Info : Advanced Video Codec
Format profile : Main@L3.2
Format settings, CABAC : Yes
Format settings, ReFrames : 4 frames
Codec ID : V_MPEG4/ISO/AVC
Duration : 1h 11mn
Bit rate mode : Variable
Bit rate : 2 738 Kbps
Maximum bit rate : 3 510 Kbps
Width : 1 280 pixels
Height : 720 pixels
Display aspect ratio : 16:9
Frame rate : 23.976 fps
Color space : YUV
Chroma subsampling : 4:2:0
Bit depth : 8 bits
Scan type : Progressive
Bits/(Pixel*Frame) : 0.124
Stream size : 1.37 GiB (77%)
Language : English
Default : Yes
Forced : No
Audio #1
ID : 2
Format : AC-3
Format/Info : Audio Coding 3
Mode extension : CM (complete main)
Format settings, Endianness : Big
Codec ID : A_AC3
Duration : 1h 11mn
Bit rate mode : Constant
Bit rate : 384 Kbps
Channel(s) : 6 channels
Channel positions : Front: L C R, Side: L R, LFE
Sampling rate : 48.0 KHz
Bit depth : 16 bits
Compression mode : Lossy
Stream size : 196 MiB (11%)
Language : Russian
Default : Yes
Forced : No
Audio #2
ID : 3
Format : AC-3
Format/Info : Audio Coding 3
Mode extension : CM (complete main)
Format settings, Endianness : Big
Codec ID : A_AC3
Duration : 1h 11mn
Bit rate mode : Constant
Bit rate : 384 Kbps
Channel(s) : 6 channels
Channel positions : Front: L C R, Side: L R, LFE
Sampling rate : 48.0 KHz
Bit depth : 16 bits
Compression mode : Lossy
Delay relative to video : 29ms
Stream size : 196 MiB (11%)
Language : English
Default : No
Forced : No
Text #1
ID : 4
Format : UTF-8
Codec ID : S_TEXT/UTF8
Codec ID/Info : UTF-8 Plain Text
Language : English
Default : No
Forced : No
Text #2
ID : 5
Format : UTF-8
Codec ID : S_TEXT/UTF8
Codec ID/Info : UTF-8 Plain Text
Title : SDH
Language : English
Default : No
Forced : No
! ; . , :
.
( ).
, .
() ( - ), . , !
E , , . , , .




...Westworld.(.01).(......).[2016.....WEB-DL].[720p].[MVO].(Jaskier).+.[Orig].(Eng).torrent
  ! ! 
:   [ : ] c?
MAGNET
MAGNET


.torrent

41 KB

: DHT
: - 92 , - 0
: 15,59 GB
- (: 0)
: 1
:
 FacebookTwitterLivejournal Liveinternet
 

 
: