Loading...
Error

Скачать Мир Дикого запада / Westworld (Сезон 01) (Джонатан Нолан, Джонни Кэмпбелл, Ричард Дж. Льюис) [2016 г., фантастика, триллер, вестерн, WEB-DLRip] [MVO] (Jaskier) торрент без регистрации

 
Статистика раздачи
Размер:  7,84 GB   |    Скачан:  126 раз
Сидов:  1  [  0 KB/s  ]  
 
Автор Сообщение

leon030982

[] 

Мир Дикого запада / Westworld

Год выпуска: 2016
Страна: США
Жанр: фантастика, триллер, вестерн
Продолжительность: ~ 01:08:00
Перевод: Профессиональный (многоголосый закадровый) Студия Jaskier
Субтитры: Английские
Режиссёр: Джонатан Нолан, Джонни Кэмпбелл, Ричард Дж. Льюис

В ролях: Энтони Хопкинс, Эд Харрис, Эван Рэйчел Вуд, Джеймс Марсден, Тэнди Ньютон, Джеффри Райт, Тесса Томпсон, Джимми Симпсон, Родриго Санторо, Шеннон Мари Вудворд

Описание: Предлагаем вашему вниманию интересную экскурсию в мир футуризма и роботехники. В центре внимания сериала оказывается небольшой парк развлечений, который специализируется на показе крутых гаджетов, роботов и прочей техники, которая призвана помогать человечеству. В этом заведении андроиды работают как рабы людей, пытаясь сделать все возможное, чтобы посетителям было комфортно. Однако однажды в их программе случается серьезный сбой, который делает из механических существ настоящих опасных убийц, способных навести хаос на всей планете. Что же теперь делать? Неужели начинается апокалипсис?


Качество: WEB-DLRip
Формат: AVI
Видео кодек: XvID
Аудио кодек: MP3
Видео: XviD, 1400 Кбит/с, 720x400, 23.976 fps
Аудио 1: 48.0 KHz, MP3, 2 ch, 128 Кбит/с [MVO]
Аудио 2: 48.0 KHz, MP3, 2 ch, 128 Кбит/с [ENG]

Торент обновлен! Добавлена 10-я серия
Общее
Формат : AVI
Формат/Информация : Audio Video Interleave
Размер файла : 750 Мбайт
Продолжительность : 58 м.
Общий поток : 1790 Кбит/сек
Программа кодирования : VirtualDubMod 1.5.10.3 | www.virtualdub-fr.org || (build 2550/release)
Библиотека кодирования : VirtualDubMod build 2550/release

Видео
Идентификатор : 0
Формат : MPEG-4 Visual
Профиль формата : Advanced Simple@L5
Параметр BVOP формата : 1
Параметр QPel формата : Нет
Параметр GMC формата : Без точки перехода
Параметр матрицы формата : Default (MPEG)
Идентификатор кодека : XVID
Идентификатор кодека/Подсказка : XviD
Продолжительность : 58 м.
Битрейт : 1520 Кбит/сек
Ширина : 720 пикселей
Высота : 400 пикселей
Соотношение сторон : 16:9
Частота кадров : 23,976 кадра/сек
Цветовое пространство : YUV
Субдискретизация насыщенности : 4:2:0
Битовая глубина : 8 бит
Тип развёртки : Прогрессивная
Метод сжатия : С потерями
Бит/(Пиксели*Кадры) : 0.220
Размер потока : 637 Мбайт (85%)
Библиотека кодирования : XviD 73

Аудио #1
Идентификатор : 1
Формат : MPEG Audio
Версия формата : Version 1
Профиль формата : Layer 3
Режим : Joint stereo
Расширение режима : MS Stereo
Идентификатор кодека : 55
Идентификатор кодека/Подсказка : MP3
Продолжительность : 58 м.
Вид битрейта : Постоянный
Битрейт : 128 Кбит/сек
Каналы : 2 канала
Частота : 48,0 КГц
Метод сжатия : С потерями
Размер потока : 53,7 Мбайт (7%)
Выравнивание : Соединение по промежуткам
Продолжительность промежутка : 42 мс. (1,00 видеокадр)
Время предзагрузки промежутка : 504 мс.

Аудио #2
Идентификатор : 2
Формат : MPEG Audio
Версия формата : Version 1
Профиль формата : Layer 3
Режим : Joint stereo
Расширение режима : MS Stereo
Идентификатор кодека : 55
Идентификатор кодека/Подсказка : MP3
Продолжительность : 58 м.
Вид битрейта : Постоянный
Битрейт : 128 Кбит/сек
Каналы : 2 канала
Частота : 48,0 КГц
Метод сжатия : С потерями
Размер потока : 53,7 Мбайт (7%)
Выравнивание : Соединение по промежуткам
Продолжительность промежутка : 42 мс. (1,00 видеокадр)
Время предзагрузки промежутка : 504 мс.
Внимание! Раздача ведётся путём добавления новых серий; при каждом добавлении создётся новый торрент. Чтобы начать докачку новой серии, пользователям необходимо сделать следующее:
Остановить скачивание.
Удалить старый торрент у себя из клиента (старые серии удалять не надо).
Скачать новый торрент и запустить его у себя в клиенте вместо старого, при этом указать клиенту путь в старую папку куда и должно происходить скачивание новых серий.
Ваш клиент при этом должен произвести хеширование (проверку) старой папки (если не производит сам - помогите ему сделать это), и будет докачивать только те серии которых у вас ещё нет. Старые серии при этом не удаляются, а продолжают раздаваться!
Eсли вы уже удалили старые серии, то предотвратить повторную закачку старых серий можно, отжав галочку в соответсвующих местах при запуске нового торрента. По возможности, желательно не удалять старые серии как можно дольше чтобы релизёр не столько продолжал раздавать старые серии, а смог сконцентрироваться на новых.




Скачать Мир.Дикого.запада.Westworld.(Сезон.01).(Джонатан.Нолан.Джонни.Кэмпбелл.Ричард.Дж.Льюис).[2016.г.фантастика.триллер.вестерн.WEB-DLRip].[MVO].(Jaskier).torrent без регистрации
Золото ЗОЛОТАЯ РАЗДАЧА! СКАЧАННОЕ НЕ ЗАСЧИТЫВАЕТСЯ! Золото
Дата: Зарегистрирован   [ Тип: внутренний ] Как тут cкачать?
MAGNET ссылка
MAGNET ссылка


Скачать .torrent

40 KB

Статус: проверено DHT
Скачан: торрент - 126 раз, раздача полностью - 0 раз
Размер: 7,84 GB
Оценка:  - (Голосов: 0)
Поблагодарили: 4
Поделиться ссылкой на эту раздачу с друзьями:
В контактеFacebookОдноклассникиTwitterLivejournalМой МирLiveinternet
 

 

leon030982

[] 

Цитата:

Добавлена 9-я серия
 
Показать сообщения:    


Вы не можете начинать темы
Вы не можете отвечать на сообщения
Вы не можете редактировать свои сообщения
Вы не можете удалять свои сообщения
Вы не можете голосовать в опросах
Вы не можете прикреплять файлы к сообщениям
Вы можете скачивать файлы