Loading...
Error

Скачать Несколько дней со мной / Quelques jours avec moi (Клод Соте) [1988, драма, мелодрама, комедия, BDRip-AVC] [MVO]+[Оригинал] торрент без регистрации

 
Статистика раздачи
Размер:  3,37 GB   |    Скачан:  6 раз
Сидов:  1  [  0 KB/s  ]  
 
Автор Сообщение

Marsianka

[] 

Год выпуска: 1988
Страна: Франция
Жанр: драма, мелодрама, комедия
Продолжительность: 02:08:34
Перевод: профессиональный многоголосый
Субтитры: нет

Режиссёр: Клод Соте

В ролях: Даниель Отой, Сандрин Боннэр, Жан-Пьер Марьель, Доминик Лаванан, Даниэль Даррьё, Венсан Линдон, Тереза Лиотар, Жерар Исмаэль, Таня Лопер, Филипп Лоденбаш

Описание: Навещая с инспекцией Лимож, президент сети супермаркетов страстно влюбляется в молодую девушку, которая работает помощницей менеджера в одном из отделов. Он просит её жить вместе с ним и, взамен, предлагает всё, о чём она когда-нибудь мечтала...



Качество: BDRip-AVC
Формат: MKV
Видео кодек: H.264
Видео: 3298 Кбит/с, 956x576, 24 кадра/с, 0.250 bpp
Имеются неименованные главы/чаптеры.
Аудио 1: русский, AC3, 192 kbps, 2 ch, 48 kHz [профессиональный многоголосый]
Аудио 2: французский, AC3, 192 kbps, 2 ch, 48 kHz [оригинал]
Сезар, 1989 год
Номинации (3):
Лучший актер (Даниель Отой)
Лучший актер второго плана (Жан-Пьер Марьель)
Лучшая актриса второго плана (Доминик Лаванан)
frame I:1154 Avg QP:18.02 size: 62749
frame P:31904 Avg QP:19.23 size: 32677
frame B:152077 Avg QP:21.14 size: 14038

Общее
Уникальный идентификатор : 216587986738224773115590596276405023594 (0xA2F1543473F7CD6583A94E86C7D6336A)
Полное имя : D:VideoNeskolko dnej so mnoj.1988.BDRip.AVC.mkv
Формат : Matroska
Версия формата : Version 4 / Version 2
Размер файла : 3,37 Гбайт
Продолжительность : 2 ч. 8 м.
Общий поток : 3756 Кбит/сек
Дата кодирования : UTC 2015-03-11 04:18:17
Программа кодирования : mkvmerge v7.7.0 ('Six Voices') 64bit built on Feb 28 2015 23:39:33
Библиотека кодирования : libebml v1.3.1 + libmatroska v1.4.2
_STATISTICS_WRITING_APP : mkvmerge v7.7.0 ('Six Voices') 64bit built on Feb 28 2015 23:39:33
_STATISTICS_WRITING_DATE_UTC : 2015-03-11 04:18:17
_STATISTICS_TAGS : BPS DURATION NUMBER_OF_FRAMES NUMBER_OF_BYTES
DURATION : 02:08:33.984000000
NUMBER_OF_FRAMES : 241062
NUMBER_OF_BYTES : 185135616

Видео
Идентификатор : 1
Формат : AVC
Формат/Информация : Advanced Video Codec
Профиль формата : High@L4.1
Параметр CABAC формата : Да
Параметр ReFrames формата : 9 кадров
Идентификатор кодека : V_MPEG4/ISO/AVC
Продолжительность : 2 ч. 8 м.
Битрейт : 3298 Кбит/сек
Ширина : 956 пикселей
Высота : 576 пикселей
Соотношение сторон : 1,660
Режим частоты кадров : Постоянный
Частота кадров : 24,000 кадра/сек
Цветовое пространство : YUV
Субдискретизация насыщенности : 4:2:0
Битовая глубина : 8 бит
Тип развёртки : Прогрессивная
Бит/(Пиксели*Кадры) : 0.250
Размер потока : 2,96 Гбайт (88%)
Заголовок : BDRip -- STarankov
Библиотека кодирования : x264 core 142 r2431 ac76440
Настройки программы : cabac=1 / ref=9 / deblock=1:-2:-2 / analyse=0x3:0x113 / me=umh / subme=10 / psy=1 / psy_rd=1.00:0.15 / mixed_ref=1 / me_range=32 / chroma_me=1 / trellis=2 / 8x8dct=1 / cqm=0 / deadzone=21,11 / fast_pskip=1 / chroma_qp_offset=-3 / threads=6 / lookahead_threads=1 / sliced_threads=0 / nr=0 / decimate=1 / interlaced=0 / bluray_compat=0 / constrained_intra=0 / bframes=8 / b_pyramid=2 / b_adapt=2 / b_bias=0 / direct=3 / weightb=1 / open_gop=0 / weightp=2 / keyint=230 / keyint_min=23 / scenecut=40 / intra_refresh=0 / rc_lookahead=40 / rc=crf / mbtree=0 / crf=19.2 / qcomp=0.60 / qpmin=0 / qpmax=69 / qpstep=4 / vbv_maxrate=40000 / vbv_bufsize=50000 / crf_max=0.0 / nal_hrd=none / filler=0 / ip_ratio=1.40 / pb_ratio=1.30 / aq=1:1.00
Язык : French
Default : Да
Forced : Нет
DURATION : 02:08:33.959000000
NUMBER_OF_FRAMES : 185135
NUMBER_OF_BYTES : 3249849427
_STATISTICS_WRITING_APP : mkvmerge v7.7.0 ('Six Voices') 64bit built on Feb 28 2015 23:39:33
_STATISTICS_WRITING_DATE_UTC : 2015-03-11 04:18:17
_STATISTICS_TAGS : BPS DURATION NUMBER_OF_FRAMES NUMBER_OF_BYTES

Аудио #1
Идентификатор : 2
Формат : AC-3
Формат/Информация : Audio Coding 3
Расширение режима : CM (complete main)
Параметр Endianness формата : Big
Идентификатор кодека : A_AC3
Продолжительность : 2 ч. 8 м.
Вид битрейта : Постоянный
Битрейт : 192 Кбит/сек
Каналы : 2 канала
Расположение каналов : Front: L R
Частота : 48,0 КГц
Битовая глубина : 16 бит
Метод сжатия : С потерями
Размер потока : 177 Мбайт (5%)
Заголовок : MVO
Язык : Russian
Default : Да
Forced : Нет

Аудио #2
Идентификатор : 3
Формат : AC-3
Формат/Информация : Audio Coding 3
Расширение режима : CM (complete main)
Параметр Endianness формата : Big
Идентификатор кодека : A_AC3
Продолжительность : 2 ч. 8 м.
Вид битрейта : Постоянный
Битрейт : 192 Кбит/сек
Каналы : 2 канала
Расположение каналов : Front: L R
Частота : 48,0 КГц
Битовая глубина : 16 бит
Метод сжатия : С потерями
Размер потока : 177 Мбайт (5%)
Заголовок : Original
Язык : French
Default : Нет
Forced : Нет

Меню
00:00:00.000 : :Chapter 01
00:09:14.375 : :Chapter 02
00:16:11.000 : :Chapter 03
00:24:26.083 : :Chapter 04
00:39:38.916 : :Chapter 05
00:53:59.583 : :Chapter 06
01:08:03.875 : :Chapter 07
01:18:45.707 : :Chapter 08
01:27:21.875 : :Chapter 09
01:39:59.583 : :Chapter 10
01:52:55.125 : :Chapter 11
02:04:37.208 : :Chapter 12



Скачать Несколько.дней.со.мной.Quelques.jours.avec.moi.(Клод.Соте).[1988.драма.мелодрама.комедия.BDRip-AVC].[MVO]+[Оригинал].torrent без регистрации
Золото ЗОЛОТАЯ РАЗДАЧА! СКАЧАННОЕ НЕ ЗАСЧИТЫВАЕТСЯ! Золото
Дата: Зарегистрирован   [ Тип: внутренний ] Как тут cкачать?
MAGNET ссылка
MAGNET ссылка


Скачать .torrent

18 KB

Статус: проверено DHT
Скачан: торрент - 6 раз, раздача полностью - 0 раз
Размер: 3,37 GB
Оценка:  - (Голосов: 0)
Поблагодарили: 0
Поделиться ссылкой на эту раздачу с друзьями:
В контактеFacebookОдноклассникиTwitterLivejournalМой МирLiveinternet
 

 
Показать сообщения:    


Вы не можете начинать темы
Вы не можете отвечать на сообщения
Вы не можете редактировать свои сообщения
Вы не можете удалять свои сообщения
Вы не можете голосовать в опросах
Вы не можете прикреплять файлы к сообщениям
Вы можете скачивать файлы