Loading...
Error

Скачать Блант без обиняков / Блант говорит / Blunt Talk / (Сезон 02, серии 01-08 из 10) (Тристрам Шапиро, Билл Д’Элиа) [2016, комедия, WEB-DL] [1080p] [MVO] (AlexFilm) торрент без регистрации

 
Статистика раздачи
Размер:  12,4 GB   |    Скачан:  12 раз
Сидов:  1  [  0 KB/s  ]  
 
Автор Сообщение

leon030982

[] 

Блант без обиняков / Блант говорит / Blunt Talk


Год выхода: 2016
Жанр: комедия
Страна: США
Продолжительность: ~ 00:30:00
Перевод: Профессиональный (многоголосый закадровый) | AlexFilm
Субтитры: нет

Режиссер: Тристрам Шапиро, Билл Д’Элиа

В ролях: Патрик Стюарт, Эдриан Скарборо, Тимм Шарп, Джеки Уивер, Долли Уэллс, Каран Сони и другие

Описание: Эксцентричный британский телеведущий Уолтер Блант переезжает в Лос-Анджелес вместе со своим слугой-алкоголиком и багажом из нескольких неудачных браков, чтобы вести собственное ток-шоу, в котором Блант пытается давать американцам мудрые на его взгляд советы о правильном образе жизни, мыслях и поведении, хотя самого Уолтера трудно назвать примером для подражания.



Файл
Качество: WEB-DL 1080p
Формат: MKV
Видео кодек: AVC
Аудио кодек: AC3
Видео: 1920x1080 (16:9), 23.976 fps, MPEG-4 AVC ~6200 kbps avg
Аудио Rus: 48 kHz, AC3 Dolby Digital, 3/2 (L,C,R,l,r) + LFE ch, ~384.00 kbps [AlexFilm]
Аудио Eng: 48 kHz, AC3 Dolby Digital, 3/2 (L,C,R,l,r) + LFE ch, ~384.00 kbps [Eng]

Торент обновлен! Добавлена 8-я серия
Перевод: Константин Кривоногов
Монтаж и сведение звука: Михаил Шорыгин
Роли озвучивали:
Светлана Чистохина
Екатерина Муравицкая
Пётр Иващенко (Гланц)
Михаил Суслов
Константин Погодаев
Format : Matroska
Format version : Version 4 / Version 2
File size : 1.39 GiB
Duration : 27 min
Overall bit rate : 7 149 kb/s
Encoded date : UTC 2016-10-05 07:06:57
Writing application : mkvmerge v6.1.0 ('Old Devil') built on Mar 4 2013 09:10:42
Writing library : libebml v1.3.0 + libmatroska v1.4.0

Video
ID : 1
Format : AVC
Format/Info : Advanced Video Codec
Format profile : High@L4.1
Format settings, CABAC : Yes
Format settings, ReFrames : 4 frames
Codec ID : V_MPEG4/ISO/AVC
Duration : 27 min
Bit rate : 6 238 kb/s
Width : 1 920 pixels
Height : 1 080 pixels
Display aspect ratio : 16:9
Frame rate mode : Constant
Frame rate : 23.976 (24000/1001) FPS
Color space : YUV
Chroma subsampling : 4:2:0
Bit depth : 8 bits
Scan type : Progressive
Bits/(Pixel*Frame) : 0.125
Stream size : 1.21 GiB (87%)
Writing library : x264 core 148 r2705 3f5ed56
Encoding settings : cabac=1 / ref=4 / deblock=1:-2:-2 / analyse=0x3:0x133 / me=umh / subme=9 / psy=1 / psy_rd=1.00:0.00 / mixed_ref=1 / me_range=16 / chroma_me=1 / trellis=2 / 8x8dct=1 / cqm=0 / deadzone=21,11 / fast_pskip=0 / chroma_qp_offset=-2 / threads=34 / lookahead_threads=2 / sliced_threads=0 / nr=0 / decimate=1 / interlaced=0 / bluray_compat=0 / constrained_intra=0 / bframes=3 / b_pyramid=2 / b_adapt=2 / b_bias=0 / direct=3 / weightb=1 / open_gop=0 / weightp=2 / keyint=250 / keyint_min=23 / scenecut=40 / intra_refresh=0 / rc_lookahead=60 / rc=crf / mbtree=1 / crf=17.0 / qcomp=0.60 / qpmin=0 / qpmax=69 / qpstep=4 / ip_ratio=1.40 / aq=3:0.70
Language : English
Default : Yes
Forced : No

Audio #1
ID : 2
Format : AC-3
Format/Info : Audio Coding 3
Mode extension : CM (complete main)
Format settings, Endianness : Big
Codec ID : A_AC3
Duration : 27 min
Bit rate mode : Constant
Bit rate : 384 kb/s
Channel(s) : 6 channels
Channel positions : Front: L C R, Side: L R, LFE
Sampling rate : 48.0 kHz
Frame rate : 31.250 FPS (1536 spf)
Compression mode : Lossy
Stream size : 76.6 MiB (5%)
Title : DD 5.1 AlexFilm
Language : Russian
Default : Yes
Forced : No

Audio #2
ID : 3
Format : AC-3
Format/Info : Audio Coding 3
Mode extension : CM (complete main)
Format settings, Endianness : Big
Codec ID : A_AC3
Duration : 27 min
Bit rate mode : Constant
Bit rate : 384 kb/s
Channel(s) : 6 channels
Channel positions : Front: L C R, Side: L R, LFE
Sampling rate : 48.0 kHz
Frame rate : 31.250 FPS (1536 spf)
Compression mode : Lossy
Stream size : 76.6 MiB (5%)
Title : Eng
Language : English
Default : No
Forced : No



Скачать Блант.без.обиняков.Блант.говорит.Blunt.Talk.(Сезон.02.серии.01-08.из.10).(Тристрам.Шапиро.Билл.Д’Элиа).[2016.комедия.WEB-DL].[1080p].[MVO].(AlexFilm).torrent без регистрации
Золото ЗОЛОТАЯ РАЗДАЧА! СКАЧАННОЕ НЕ ЗАСЧИТЫВАЕТСЯ! Золото
Дата: Зарегистрирован   [ Тип: внутренний ] Как тут cкачать?
MAGNET ссылка
MAGNET ссылка


Скачать .torrent

63 KB

Статус: проверено DHT
Скачан: торрент - 12 раз, раздача полностью - 1 раз
Размер: 12,4 GB
Оценка:  - (Голосов: 0)
Поблагодарили: 0
Поделиться ссылкой на эту раздачу с друзьями:
В контактеFacebookОдноклассникиTwitterLivejournalМой МирLiveinternet
 

 
Показать сообщения:    


Вы не можете начинать темы
Вы не можете отвечать на сообщения
Вы не можете редактировать свои сообщения
Вы не можете удалять свои сообщения
Вы не можете голосовать в опросах
Вы не можете прикреплять файлы к сообщениям
Вы можете скачивать файлы