Loading...
Error

Скачать Вне времени / Timeless (Сезон 01, серия 01-08 из 16) (Нил Маршалл) [2016, Фантастика, боевик, драма, приключения, WEB-DLRip] [MVO] (студия "Кравец") торрент без регистрации

 
Статистика раздачи
Размер:  4,3 GB   |    Скачан:  68 раз
Сидов:  1  [  0 KB/s  ]  
 
Автор Сообщение

leon030982

[] 

Вне времени / Timeless


Год выпуска: 2016
Жанр: Фантастика, боевик, драма, приключения
Выпущено: США, Davis Entertainment, Kripke Enterprises, MiddKid Productions, Sony Pictures Television
Продолжительность: 1 x ~ 00:50:00
Перевод: Профессиональный (многоголосый) [студия "Кравец"]

Режиссер: Нил Маршалл

В ролях: Клаудия Дурмит, Мэтт Фрюэр, Джордан Гардинер, Брекен Ханке, Сакина Джэффри, Хиро Канагава, Тревор Лернер

О фильме: Сюжет повествует о команде из трёх человек, путешествующих по времени в поисках могущественного гада, который вознамерился переписать историю человечества. Если трио не успеет сработаться и сорвать преступный план, миру, естественно, грозит катастрофа.


Рип от -- JuSSiKa
Качество: WEB-DLRip
Формат: AVI
Видео кодек: XviD
Аудио кодек: MP3
Видео: Xvid, 720x400, ~1500 kbps, 23,976 fps
Аудио: MP3, 48 kHz, 2 ch, 128 kbps [MVO]
Аудио: MP3, 48 kHz, 2 ch, 128 kbps [ENG]

Торент обновлен! Добавлена 8-я серия
General
Complete name : E:\INTERNET\Timeless.S01.WEB-DLRip.RusEng.Kravec\Timeless.S01E01.WEB-DLRip.RusEng.Kravec.L.avi
Format : AVI
Format/Info : Audio Video Interleave
File size : 551 MiB
Duration : 45mn 2s
Overall bit rate : 1 709 Kbps
Writing application : VirtualDubMod 1.5.10.3 (build 2550/release)
Writing library : VirtualDubMod build 2550/release

Video
ID : 0
Format : MPEG-4 Visual
Format profile : Advanced Simple@L5
Format settings, BVOP : 1
Format settings, QPel : No
Format settings, GMC : No warppoints
Format settings, Matrix : Default (H.263)
Codec ID : XVID
Codec ID/Hint : XviD
Duration : 45mn 2s
Bit rate : 1 374 Kbps
Width : 720 pixels
Height : 400 pixels
Display aspect ratio : 16:9
Frame rate : 23.976 fps
Color space : YUV
Chroma subsampling : 4:2:0
Bit depth : 8 bits
Scan type : Progressive
Compression mode : Lossy
Bits/(Pixel*Frame) : 0.199
Stream size : 443 MiB (80%)
Writing library : XviD 1.2.1 (UTC 2008-12-04)

Audio #1
ID : 1
Format : MPEG Audio
Format version : Version 1
Format profile : Layer 3
Mode : Joint stereo
Mode extension : MS Stereo
Codec ID : 55
Codec ID/Hint : MP3
Duration : 45mn 2s
Bit rate mode : Constant
Bit rate : 128 Kbps
Channel(s) : 2 channels
Sampling rate : 48.0 KHz
Compression mode : Lossy
Stream size : 41.2 MiB (7%)
Alignment : Aligned on interleaves

Audio #2
ID : 2
Format : MPEG Audio
Format version : Version 1
Format profile : Layer 3
Mode : Joint stereo
Mode extension : MS Stereo
Codec ID : 55
Codec ID/Hint : MP3
Duration : 45mn 2s
Bit rate mode : Constant
Bit rate : 128 Kbps
Channel(s) : 2 channels
Sampling rate : 48.0 KHz
Compression mode : Lossy
Stream size : 41.2 MiB (7%)
Alignment : Aligned on interleaves
Внимание! Раздача ведётся путём добавления новых серий; при каждом добавлении создётся новый торрент. Чтобы начать докачку новой серии, пользователям необходимо сделать следующее:
Остановить скачивание.
Удалить старый торрент у себя из клиента (старые серии удалять не надо).
Скачать новый торрент и запустить его у себя в клиенте вместо старого, при этом указать клиенту путь в старую папку куда и должно происходить скачивание новых серий.
Ваш клиент при этом должен произвести хеширование (проверку) старой папки (если не производит сам - помогите ему сделать это), и будет докачивать только те серии которых у вас ещё нет. Старые серии при этом не удаляются, а продолжают раздаваться!
Eсли вы уже удалили старые серии, то предотвратить повторную закачку старых серий можно, отжав галочку в соответсвующих местах при запуске нового торрента. По возможности, желательно не удалять старые серии как можно дольше чтобы релизёр не столько продолжал раздавать старые серии, а смог сконцентрироваться на новых.



Скачать Вне.времени.Timeless.(Сезон.01.серия.01-08.из.16).(Нил.Маршалл).[2016.Фантастика.боевик.драма.приключения.WEB-DLRip].[MVO].(студия."Кравец").torrent без регистрации
Золото ЗОЛОТАЯ РАЗДАЧА! СКАЧАННОЕ НЕ ЗАСЧИТЫВАЕТСЯ! Золото
Дата: Зарегистрирован   [ Тип: внутренний ] Как тут cкачать?
MAGNET ссылка
MAGNET ссылка


Скачать .torrent

23 KB

Статус: проверено DHT
Скачан: торрент - 68 раз, раздача полностью - 2 раз
Размер: 4,3 GB
Оценка:  - (Голосов: 0)
Поблагодарили: 4
Поделиться ссылкой на эту раздачу с друзьями:
В контактеFacebookОдноклассникиTwitterLivejournalМой МирLiveinternet
 

 

leon030982

[] 

Цитата:

Добавлена 4-я серия
 

leon030982

[] 

Цитата:

Дебютировав всего месяц назад, сериал «Вне времени» (Timeless) уже успел найти поклонников среди любителей фантастики, органично объединяющей в себе юмор и драму. Для этих зрителей канал NBC приготовил небольшой сюрприз — приключения главных героев шоу будут длиться дольше запланированного благодаря трем эпизодам, добавленным к первому сезону.
Принимая подобное решение, боссы NBC руководствовались отличными рейтингами, которые показывает сериал. В среднем каждый эпизод привлекает к экранам 11,2 млн зрителей (с учетом просмотров в записи). Примечательно, что шоу, созданное Эриком Крипке и Шоном Райаном, входит в пятерку новичков осеннего телесезона, демонстрирующих лучшие рейтинги.
«"Вне времени" — феноменальный сериал, который дает зрителям возможность каждую неделю бывать в разных местах и эпохах, — отметила президент NBC Entertainment Дженнифер Солк. — Мы снимаем шляпу перед Эриком Крипке и Шоном Райаном за то, что они продюсируют одну из самых амбициозных новинок на всем телевидении».

Первый сезон «Вне времени», таким образом, будет состоять из 16 эпизодов.
 
Показать сообщения:    


Вы не можете начинать темы
Вы не можете отвечать на сообщения
Вы не можете редактировать свои сообщения
Вы не можете удалять свои сообщения
Вы не можете голосовать в опросах
Вы не можете прикреплять файлы к сообщениям
Вы можете скачивать файлы