Loading...
Error

Скачать Солнечное копьё / Słoneczna włócznia (сезон 01) (Ежи Лукашевич) [2001, фантастика, семейный, комедия, DVDRip] [VO (С. Ващенко)] торрент без регистрации

 
Статистика раздачи
Размер:  4,86 GB   |    Скачан:  9 раз
Сидов:  1  [  0 KB/s  ]  
 
Автор Сообщение

МихаНЕзатор

[] 

Информация о фильме
Название: Солнечное копьё
Оригинальное название: Słoneczna włócznia / Die Sonnenlanze
Год выхода: 2001
Жанр: фантастика, семейный, комедия
Режиссер: Ежи Лукашевич

В ролях: Марцин Коберский, Себастьян Грек, Анна Новак, Кжиштоф Янчак, Мацей Лагодзински, Марта Боровска, Гржегорц Руда, Гудрун Окрас, Ежи Гудейко, Рейнер Хейз

О фильме: Космическая энергия, спрятанная в наконечнике Солнечного Копья, найденного в Андах, круто меняет жизнь 12-летнего Макса. Он теперь в совершенстве владеет телекинезом и стал вундеркиндом. Непросто складываются отношения в школе, где ему и его «дикой» подружке Матильде противостоит завистливый Артур с компанией. К тому же за Копьем охотится пришелец Зак…

Релиз от:

Производство: Польша, Германия / Max-Film, mdF
Продолжительность: 13 x ~00:26:00
Перевод: sasha20072007
Озвучивание: любительское (одноголосое закадровое) [Семен Ващенко]

Файл
Качество: DVDRip
Формат: AVI
Видео: DivX 5, 704x438 (16:10), 25.000 fps, ~1800 kbps, 0.233 bit/pixel
Аудио: русский, AC3 2.0, 48 kHz, 192 kbps

АНОНСЫ ПОПУЛЯРНЫХ РАЗДАЧ

1. Tajemnicze odkrycie - Таинственная находка
2. Artur - Артур
3. Magiczna moc - Магическая сила
4. Fenomen - Феномен
5. Tajemniczy slad - Таиственный след
6. Dom Orchidei - Дом Орхидеи
7. Niezwykly Gosc - Загадочный гость
8. Obcy na planecie Terra - Чужой на планете Терра
9. Matylda - Матильда
10. Trop - Cлед
11. Ostatnie starcie - Последняя схватка
12. Powrót do Bramy Słońca - Возвращение к Вратам Солнца
13. Najważniejszy mecz - Самый важный матч
Формат : AVI
Формат/Информация : Audio Video Interleave
Размер файла : 383 Мбайт
Продолжительность : 26 м.
Общий поток : 1999 Кбит/сек
Программа кодирования : VirtualDubModRus 1.5.10.2 (build 2542/release)
Библиотека кодирования : VirtualDubMod build 2542/release

Видео
Идентификатор : 0
Формат : MPEG-4 Visual
Параметр BVOP формата : 1
Параметр QPel формата : Нет
Параметр GMC формата : Без точки перехода
Параметр матрицы формата : Default (H.263)
Режим смешивания : Сжатый битовый поток
Идентификатор кодека : DX50
Идентификатор кодека/Подсказка : DivX 5
Продолжительность : 26 м.
Битрейт : 1797 Кбит/сек
Ширина : 704 пикселя
Высота : 438 пикселей
Соотношение сторон : 16:10
Частота кадров : 25,000 кадров/сек
Цветовое пространство : YUV
Субдискретизация насыщенности : 4:2:0
Битовая глубина : 8 бит
Тип развёртки : Прогрессивная
Метод сжатия : С потерями
Бит/(Пиксели*Кадры) : 0.233
Размер потока : 344 Мбайт (90%)
Библиотека кодирования : DivX 6.0.0 (UTC 2005-06-15)

Аудио
Идентификатор : 1
Формат : AC-3
Формат/Информация : Audio Coding 3
Расширение режима : CM (complete main)
Параметр Endianness формата : Big
Идентификатор кодека : 2000
Продолжительность : 26 м.
Вид битрейта : Постоянный
Битрейт : 192 Кбит/сек
Каналы : 2 канала
Расположение каналов : Front: L R
Частота : 48,0 КГц
Метод сжатия : С потерями
Размер потока : 36,8 Мбайт (10%)
Выравнивание : Разделение по промежуткам
Продолжительность промежутка : 40 мс. (1,00 видеокадр)
Время предзагрузки промежутка : 500 мс.



Скачать Солнечное.копьё.Słoneczna.włócznia.(сезон.01).(Ежи.Лукашевич).[2001.фантастика.семейный.комедия.DVDRip].[VO.(С.Ващенко)].torrent без регистрации
Золото ЗОЛОТАЯ РАЗДАЧА! СКАЧАННОЕ НЕ ЗАСЧИТЫВАЕТСЯ! Золото
Дата: Зарегистрирован   [ Тип: внутренний ] Как тут cкачать?
MAGNET ссылка
MAGNET ссылка


Скачать .torrent

14 KB

Статус: проверено DHT
Скачан: торрент - 9 раз, раздача полностью - 5 раз
Размер: 4,86 GB
Оценка:  - (Голосов: 0)
Поблагодарили: 1
Поделиться ссылкой на эту раздачу с друзьями:
В контактеFacebookОдноклассникиTwitterLivejournalМой МирLiveinternet
 

 
Показать сообщения:    


Вы не можете начинать темы
Вы не можете отвечать на сообщения
Вы не можете редактировать свои сообщения
Вы не можете удалять свои сообщения
Вы не можете голосовать в опросах
Вы не можете прикреплять файлы к сообщениям
Вы можете скачивать файлы