Loading...
Error

Скачать Часы посещения / Visiting Hours (Жан-Клод Лорд) [1982, ужасы, триллер, HDRip] [AVO] торрент без регистрации

 
Статистика раздачи
Размер:  1,46 GB   |    Скачан:  7 раз

Полного источника не было: 28 минут

 
Автор Сообщение

Marsianka

[] 

Страна: Канада
Жанр: ужасы, триллер
Год выпуска: 1982
Продолжительность: 01:45:11

Перевод: Авторский (одноголосый закадровый) Алексей Михалев
Cубтитры: нет
Режиссер: Жан-Клод Лорд / Jean-Claude Lord

В ролях: Майкл Айронсайд, Ли Грант, Линда Перл, Уильям Шетнер, Ленор Занн, Гарри Аткин, Хелен Хьюз, Майкл Дж. Рейнольдс, Керстен Бишоп, Дебора Киршенбаум

Описание: Телевизионная ведущая оказывается в центре внимания психически неуравновешенного маньяка. Ее смелые и нетрадиционные высказывания о феминизме, неграх, войне во Вьетнаме, евреях вызывают у него чувство досады и разочарования. Он преследует ее до самого дома, после чего проникает внутрь и нападает на женщину. Той чудом удается избежать смерти, но при этом журналистка получает серьезные повреждения. Она оказывается в госпитале. Но оказывается, что ее кошмары только начинаются, так как маньяк собирается завершить начатое дело и убить журналистку…



Автор рипа: Sem-te

Релиз от:



Исходник: Visiting.Hours.1982.PROPER.1080p.BluRay.x264-SADPANDA
Качество видео: HDRip
Формат видео: AVI

Видео: 704x384 (1.83:1), 23.976 fps, XviD build 73 ~1790 kbps avg, 0.28 bit/pixel
Аудио: 48 kHz, AC3 Dolby Digital, 2/0 (L,R) ch, ~192 kbps
Размер: 1497.83 Mb (1/3 DVD-R)

General
Format : AVI
Format/Info : Audio Video Interleave
File size : 1.46 GiB
Duration : 1h 45mn
Overall bit rate : 1 991 Kbps
Writing application : VirtualDubMod 1.5.10.3 | www.virtualdub-fr.org || (build 2550/release)
Writing library : VirtualDubMod build 2550/release

Video
ID : 0
Format : MPEG-4 Visual
Format profile : Advanced Simple@L5
Format settings, BVOP : 1
Format settings, QPel : No
Format settings, GMC : No warppoints
Format settings, Matrix : Custom
Codec ID : XVID
Codec ID/Hint : XviD
Duration : 1h 45mn
Bit rate : 1 790 Kbps
Width : 704 pixels
Height : 384 pixels
Display aspect ratio : 1.85:1
Frame rate : 23.976 fps
Color space : YUV
Chroma subsampling : 4:2:0
Bit depth : 8 bits
Scan type : Progressive
Compression mode : Lossy
Bits/(Pixel*Frame) : 0.276
Stream size : 1.31 GiB (90%)
Writing library : XviD 73

Audio
ID : 1
Format : AC-3
Format/Info : Audio Coding 3
Mode extension : CM (complete main)
Format settings, Endianness : Big
Codec ID : 2000
Duration : 1h 45mn
Bit rate mode : Constant
Bit rate : 192 Kbps
Channel(s) : 2 channels
Channel positions : Front: L R
Sampling rate : 48.0 KHz
Bit depth : 16 bits
Compression mode : Lossy
Stream size : 144 MiB (10%)
Alignment : Split accross interleaves
Interleave, duration : 42 ms (1.00 video frame)
Interleave, preload duration : 500 ms



Скачать Часы.посещения.Visiting.Hours.(Жан-Клод.Лорд).[1982.ужасы.триллер.HDRip].[AVO].torrent без регистрации
Золото ЗОЛОТАЯ РАЗДАЧА! СКАЧАННОЕ НЕ ЗАСЧИТЫВАЕТСЯ! Золото
Дата: Зарегистрирован   [ Тип: внутренний ] Как тут cкачать?
MAGNET ссылка
MAGNET ссылка


Скачать .torrent

15 KB

Статус: проверено DHT
Скачан: торрент - 7 раз, раздача полностью - 6 раз
Размер: 1,46 GB
Оценка:  - (Голосов: 0)
Поблагодарили: 0
Поделиться ссылкой на эту раздачу с друзьями:
В контактеFacebookОдноклассникиTwitterLivejournalМой МирLiveinternet
 

 
Показать сообщения:    


Вы не можете начинать темы
Вы не можете отвечать на сообщения
Вы не можете редактировать свои сообщения
Вы не можете удалять свои сообщения
Вы не можете голосовать в опросах
Вы не можете прикреплять файлы к сообщениям
Вы можете скачивать файлы