Loading...
Error

Скачать Мистер Питкин в тылу врага / The Square Peg (Джон Пэдди Кастэйрс) [1958, комедия, DVDRip-AVC] [Dub (Советский дубляж)] торрент без регистрации

 
Статистика раздачи
Размер:  1,73 GB   |    Скачан:  11 раз
Сидов:  1  [  0 KB/s  ]  
 
Автор Сообщение

Marsianka

[] 

Информация о фильме
Название: Мистер Питкин в тылу врага
Оригинальное название: The Square Peg
Год выхода: 1958
Жанр: комедия
Режиссер: Джон Пэдди Кастэйрс
В ролях: Норман Уисдом, Хонор Блэкмен, Эдвард Чэпман, Кэмпбелл Сингер, Хэтти Жак, Брайан Ворф, Теренс Александр, Джон Уорвик, Арнольд Белл, Андре Маранн

О фильме: Землекоп Питкин имел бронь, так как трудился на дорожных работах, но вышло так, что был заброшен с парашютом в тыл врага. Далее совершенно случайно он оказался двойником немецкого генерала. Можно себе представить, сколько смешных приключений и ситуаций произошло с мистером Питкиным в генеральской форме, когда он поехал инспектировать вражеские позиции.

«Мистер Питкин в тылу врага» — кинокомедия режиссёра Джона Пэдди Кастэйрса, из серии о приключениях солдата Нормана Питкина. Название картины обыгрывает английский фразеологизм «A square peg in a round hole» — «квадратный колышек в круглую дырку» то есть: человек не на своём месте.
В советском дубляже роль Нормана Уиздома озвучил Георгий Вицин.



Страна: Великобритания
Студия: The Rank Organisation Film Productions Ltd.
Продолжительность: 01:25:49
Перевод: Дублированный (Советский дубляж)

Файл
Кодек: H264
Качество: DVDRip-AVC
Видео: MPEG4 Video (H264) 1024x616 29.97fps, 2500 Kbps
Звук: Русский - Dolby AC3, 48000 Hz, 2ch, 192 kbps
Звук: Английский - Dolby AC3, 48000 Hz, 2ch, 192 kbps

Сэмпл

General
Unique ID : 186264721372407916763174373299410099558 (0x8C2147CB66B7680181397C065C32DD66)
Complete name : F:Torrent 21958.Питкин в тылу врага.renta23.mkv
Format : Matroska
Format version : Version 4 / Version 2
File size : 1.73 GiB
Duration : 1h 25mn
Overall bit rate : 2 886 Kbps
Encoded date : UTC 2014-10-10 16:52:00
Writing application : mkvmerge v7.1.0 ('Good Love') 32bit built on Jul 27 2014 12:59:18
Writing library : libebml v1.3.0 + libmatroska v1.4.1
DURATION : 01:25:49.568000000
NUMBER_OF_FRAMES : 160924
NUMBER_OF_BYTES : 123589632
_STATISTICS_WRITING_APP : mkvmerge v7.1.0 ('Good Love') 32bit built on Jul 27 2014 12:59:18
_STATISTICS_WRITING_DATE_UTC : 2014-10-10 16:52:00
_STATISTICS_TAGS : BPS DURATION NUMBER_OF_FRAMES NUMBER_OF_BYTES

Video
ID : 1
Format : AVC
Format/Info : Advanced Video Codec
Format profile : High@L4.1
Format settings, CABAC : Yes
Format settings, ReFrames : 7 frames
Codec ID : V_MPEG4/ISO/AVC
Bit rate : 2 500 Kbps
Width : 1 024 pixels
Height : 616 pixels
Display aspect ratio : 1.662
Frame rate mode : Variable
Original frame rate : 29.970 fps
Color space : YUV
Chroma subsampling : 4:2:0
Bit depth : 8 bits
Scan type : Progressive
Bits/(Pixel*Frame) : 0.132
Title : Мистер Питкин в тылу врага (1958) / Rip by renta23
Writing library : x264 core 125 r2208 d9d2288
Encoding settings : cabac=1 / ref=8 / deblock=1:-1:-1 / analyse=0x3:0x133 / me=umh / subme=11 / psy=1 / psy_rd=1.15:0.25 / mixed_ref=1 / me_range=24 / chroma_me=1 / trellis=2 / 8x8dct=1 / cqm=0 / deadzone=21,11 / fast_pskip=0 / chroma_qp_offset=-4 / threads=12 / lookahead_threads=2 / sliced_threads=0 / nr=0 / decimate=1 / interlaced=0 / bluray_compat=0 / constrained_intra=0 / bframes=6 / b_pyramid=1 / b_adapt=2 / b_bias=0 / direct=3 / weightb=1 / open_gop=0 / weightp=2 / keyint=250 / keyint_min=25 / scenecut=40 / intra_refresh=0 / rc_lookahead=50 / rc=2pass / mbtree=1 / bitrate=2500 / ratetol=1.0 / qcomp=0.60 / qpmin=0 / qpmax=69 / qpstep=4 / cplxblur=20.0 / qblur=0.5 / ip_ratio=1.40 / aq=2:1.00
Language : English
Default : Yes
Forced : No

Audio #1
ID : 2
Format : AC-3
Format/Info : Audio Coding 3
Mode extension : CM (complete main)
Format settings, Endianness : Big
Codec ID : A_AC3
Duration : 1h 25mn
Bit rate mode : Constant
Bit rate : 192 Kbps
Channel(s) : 2 channels
Channel positions : Front: L R
Sampling rate : 48.0 KHz
Bit depth : 16 bits
Compression mode : Lossy
Stream size : 118 MiB (7%)
Language : Russian
Default : Yes
Forced : No

Audio #2
ID : 3
Format : AC-3
Format/Info : Audio Coding 3
Mode extension : CM (complete main)
Format settings, Endianness : Big
Codec ID : A_AC3
Duration : 1h 25mn
Bit rate mode : Constant
Bit rate : 192 Kbps
Channel(s) : 2 channels
Channel positions : Front: L R
Sampling rate : 48.0 KHz
Bit depth : 16 bits
Compression mode : Lossy
Stream size : 118 MiB (7%)
Language : English
Default : No
Forced : No

Menu
00:00:00.000 : en:Chapter 01
00:10:36.160 : en:Chapter 02
00:21:40.480 : en:Chapter 03
00:31:41.520 : en:Chapter 04
00:41:12.160 : en:Chapter 05
00:49:28.360 : en:Chapter 06
00:59:49.840 : en:Chapter 07
01:08:36.240 : en:Chapter 08
01:17:59.320 : en:Chapter 09



Скачать Мистер.Питкин.в.тылу.врага.The.Square.Peg.(Джон.Пэдди.Кастэйрс).[1958.комедия.DVDRip-AVC].[Dub.(Советский.дубляж)].torrent без регистрации
Золото ЗОЛОТАЯ РАЗДАЧА! СКАЧАННОЕ НЕ ЗАСЧИТЫВАЕТСЯ! Золото
Дата: Зарегистрирован   [ Тип: внутренний ] Как тут cкачать?
MAGNET ссылка
MAGNET ссылка


Скачать .torrent

18 KB

Статус: проверено DHT
Скачан: торрент - 11 раз, раздача полностью - 8 раз
Размер: 1,73 GB
Оценка:  - (Голосов: 0)
Поблагодарили: 3
Поделиться ссылкой на эту раздачу с друзьями:
В контактеFacebookОдноклассникиTwitterLivejournalМой МирLiveinternet
 

 
Показать сообщения:    


Вы не можете начинать темы
Вы не можете отвечать на сообщения
Вы не можете редактировать свои сообщения
Вы не можете удалять свои сообщения
Вы не можете голосовать в опросах
Вы не можете прикреплять файлы к сообщениям
Вы можете скачивать файлы