Loading...
Error

Скачать Всадники апокалипсиса / Horsemen (Йонас Акерлунд) [2009, триллер, криминал, драма, детектив, BDRip-AVC] [(Лицензия)]+[MVO]+[DVO]+[Sub]x2 торрент без регистрации

 
Статистика раздачи
Размер:  2,36 GB   |    Скачан:  15 раз
Сидов:  1  [  0 KB/s  ]  
 
Автор Сообщение

Marsianka

[] 

Производство: США / Mandate Pictures, Platinum Dunes, Radar Pictures
Жанр: триллер, криминал, драма, детектив
Перевод: Профессиональный (многоголосый закадровый), профессиональный (двухголосый закадровый)
Субтитры: Русские, английские
Режиссер: Йонас Акерлунд
Актеры: Деннис Куэйд, Чжан Цзыи, Лу Тэйлор Пуччи, Клифтон Коллинз мл., Бэрри Шебака Хенли, Патрик Фьюджит, Эрик Бальфур, Пол Дули, Томас Митчел, Лайам Джеймс

Описание:
Недавно овдовевший и всё ещё оплакивающий смерть жены, коп Эйдан Бреслин всё больше уединяется в своём горе и отдаляется от своих сыновей. На работе же он находит себя в расследовании ужасных и извращённых убийств, основанных на библейском пророчестве о Четырёх Всадниках Апокалипсиса. Постепенно, продвигаясь в расследовании, он начинает понимать, что существует прямая связь между этими убийствами и им самим…



Продолжительность: 01:30:13
Качество: BDRip-AVC
Видео: AVC, 1024x556 (16:9), 23.976 fps, 3 274 Kbps (0.227 bit/pixel)
Аудио #1: AC-3, 48.0 KHz, 6 ch, 384 Kbps, CBR (Russian) - многоголосый
Аудио #2: AC-3, 48.0 KHz, 2 ch, 192 Kbps, CBR (Russian) - двухголосый
Формат : Matroska
Версия формата : Version 2
Размер файла : 2,36 Гбайт
Продолжительность : 1 ч. 30 м.
Общий поток : 3750 Кбит/сек
Дата кодирования : UTC 2016-10-07 18:08:34
Программа кодирования : mkvmerge v5.3.0 ('I could have danced') built on Feb 9 2012 10:38:07
Библиотека кодирования : libebml v1.2.3 + libmatroska v1.3.0
Attachment : Yes

Видео
Идентификатор : 1
Формат : AVC
Формат/Информация : Advanced Video Codec
Профиль формата : High@L4.1
Параметр CABAC формата : Да
Параметр ReFrames формата : 11 кадров
Идентификатор кодека : V_MPEG4/ISO/AVC
Продолжительность : 1 ч. 30 м.
Битрейт : 3100 Кбит/сек
Номинальный битрейт : 3274 Кбит/сек
Ширина : 1024 пикселя
Высота : 556 пикселей
Соотношение сторон : 1,85:1
Режим частоты кадров : Постоянный
Частота кадров : 23,976 кадра/сек
Цветовое пространство : YUV
Субдискретизация насыщенности : 4:2:0
Битовая глубина : 8 бит
Тип развёртки : Прогрессивная
Бит/(Пиксели*Кадры) : 0.227
Размер потока : 1,95 Гбайт (83%)
Библиотека кодирования : x264 core 146 r2538 121396c
Настройки программы : cabac=1 / ref=11 / deblock=1:-3:-3 / analyse=0x3:0x133 / me=umh / subme=11 / psy=1 / psy_rd=1.00:0.10 / mixed_ref=1 / me_range=32 / chroma_me=1 / trellis=2 / 8x8dct=1 / cqm=0 / deadzone=21,11 / fast_pskip=0 / chroma_qp_offset=-3 / threads=12 / lookahead_threads=2 / sliced_threads=0 / nr=0 / decimate=0 / interlaced=0 / bluray_compat=0 / constrained_intra=0 / bframes=8 / b_pyramid=2 / b_adapt=2 / b_bias=0 / direct=3 / weightb=1 / open_gop=0 / weightp=2 / keyint=240 / keyint_min=23 / scenecut=40 / intra_refresh=0 / rc_lookahead=40 / rc=2pass / mbtree=0 / bitrate=3274 / ratetol=1.0 / qcomp=0.60 / qpmin=0 / qpmax=69 / qpstep=4 / cplxblur=20.0 / qblur=0.5 / vbv_maxrate=50000 / vbv_bufsize=62500 / nal_hrd=none / filler=0 / ip_ratio=1.40 / pb_ratio=1.30 / aq=1:0.90
Default : Да
Forced : Нет

Аудио #1
Идентификатор : 2
Формат : AC-3
Формат/Информация : Audio Coding 3
Расширение режима : CM (complete main)
Параметр Endianness формата : Big
Идентификатор кодека : A_AC3
Продолжительность : 1 ч. 30 м.
Вид битрейта : Постоянный
Битрейт : 384 Кбит/сек
Каналы : 6 каналов
Расположение каналов : Front: L C R, Side: L R, LFE
Частота : 48,0 КГц
Битовая глубина : 16 бит
Метод сжатия : С потерями
Задержка видео : 2 с. 0 мс.
Размер потока : 248 Мбайт (10%)
Заголовок : Многоголосый
Язык : Russian
Default : Нет
Forced : Нет

Аудио #2
Идентификатор : 3
Формат : AC-3
Формат/Информация : Audio Coding 3
Расширение режима : CM (complete main)
Параметр Endianness формата : Big
Идентификатор кодека : A_AC3
Продолжительность : 1 ч. 30 м.
Вид битрейта : Постоянный
Битрейт : 192 Кбит/сек
Каналы : 2 канала
Расположение каналов : Front: L R
Частота : 48,0 КГц
Битовая глубина : 16 бит
Метод сжатия : С потерями
Задержка видео : 2 с. 0 мс.
Размер потока : 124 Мбайт (5%)
Заголовок : Двухголосый
Язык : Russian
Default : Нет
Forced : Нет

Текст #1
Идентификатор : 4
Формат : UTF-8
Идентификатор кодека : S_TEXT/UTF8
Идентификатор кодека/Информация : UTF-8 Plain Text
Язык : Russian
Default : Да
Forced : Нет

Текст #2
Идентификатор : 5
Формат : UTF-8
Идентификатор кодека : S_TEXT/UTF8
Идентификатор кодека/Информация : UTF-8 Plain Text
Язык : English
Default : Нет
Forced : Нет
Релиз от: K.E.N



Скачать Всадники.апокалипсиса.Horsemen.(Йонас.Акерлунд).[2009.триллер.криминал.драма.детектив.BDRip-AVC].[(Лицензия)]+[MVO]+[DVO]+[Sub]x2.torrent без регистрации
Золото ЗОЛОТАЯ РАЗДАЧА! СКАЧАННОЕ НЕ ЗАСЧИТЫВАЕТСЯ! Золото
Дата: Зарегистрирован   [ Тип: внутренний ] Как тут cкачать?
MAGNET ссылка
MAGNET ссылка


Скачать .torrent

13 KB

Статус: проверено DHT
Скачан: торрент - 15 раз, раздача полностью - 22 раз
Размер: 2,36 GB
Оценка:  - (Голосов: 0)
Поблагодарили: 2
Поделиться ссылкой на эту раздачу с друзьями:
В контактеFacebookОдноклассникиTwitterLivejournalМой МирLiveinternet
 

 
Показать сообщения:    


Вы не можете начинать темы
Вы не можете отвечать на сообщения
Вы не можете редактировать свои сообщения
Вы не можете удалять свои сообщения
Вы не можете голосовать в опросах
Вы не можете прикреплять файлы к сообщениям
Вы можете скачивать файлы