Loading...
Error

Скачать Криминальный роман / Romanzo criminale (Микеле Плачидо) [2005, криминал, драма, DVDRip-AVC] [MVO]+[Sub] торрент без регистрации

 
Статистика раздачи
Размер:  1,65 GB   |    Скачан:  9 раз

Полного источника не было: 24 минуты

 
Автор Сообщение

Marsianka

[] 

Информация о фильме
Название: Криминальный роман
Оригинальное название: Romanzo criminale
Год выхода: 2005
Жанр: криминал, драма
Режиссер: Микеле Плачидо / Michele Placido
В ролях: Ким Росси Стюарт, Анна Муглали, Пьерфранческо Фавино, Клаудио Сантамариа и др.

О фильме:
Италия, неспокойные 70-е годы. Трое отчаянных парней — Ливанец, Лёд и Денди — клянутся поставить Рим на колени, став теми, о ком говорят со страхом и почтением. Дерзкие похищения, заказные убийства и наркоторговля — мрачное ремесло криминального трио, которому суждено создать самую опасную банду в стране.

Капитан полиции Скьялоджа знает, что жестокие романтики вскоре превратятся в кровожадных волков, и он готов идти по их следу до конца. Когда лихие гангстеры становятся верными друзьями мафии, спецслужб и террористов, бесстрашный следователь понимает: перед ним — грозные враги, для которых мрачная честь и кровавая слава дороже собственной жизни…


Страна: Италия, Франция, Великобритания
Студия: Cattleya, Babe Film, Warner Bros.
Продолжительность: 02:26:40.000
Перевод: Профессиональный (многоголосый, закадровый) R5

Файл
Кодек: h.264
Качество: DVDRip-AVC Источник R2 France
Видео: 712x432 (2.35:1) @ 1018x432, 25.000 fps, AVC, ~708 Kbps, 0.092 bits/pixel

Итальянский, 48.0 KHz, AC3, 6 ch, 448 Kbps
Русский, 48.0 KHz, AC3, 6 ch, 448 Kbps
Субтитры: Русские, SRT(UTF-8) R5
frame I:2080 Avg QP:16.64 size: 22314
frame P:46057 Avg QP:19.80 size: 7903
frame B:171863 Avg QP:21.81 size: 2143
Общее
Уникальный идентификатор : 232572583525657489481728311376092820028 (0xAEF7D9AC50718E11B8BBFDEBF567723C)
Полное имя : D:FILMSKriminalniy_roman.2005.DVDRip-AVC.mkv
Формат : Matroska
Версия формата : Version 4 / Version 2
Размер файла : 1,65 Гбайт
Продолжительность : 2 ч. 26 м.
Общий поток : 1606 Кбит/сек
Дата кодирования : UTC 2016-10-08 22:04:13
Программа кодирования : mkvmerge v9.4.2 ('So High') 64bit
Библиотека кодирования : libebml v1.3.4 + libmatroska v1.4.5

Видео
Идентификатор : 1
Формат : AVC
Формат/Информация : Advanced Video Codec
Профиль формата : High@L4.1
Параметр CABAC формата : Да
Параметр ReFrames формата : 11 кадров
Идентификатор кодека : V_MPEG4/ISO/AVC
Продолжительность : 2 ч. 26 м.
Битрейт : 708 Кбит/сек
Ширина : 712 пикселей
Высота : 432 пикселя
Соотношение сторон : 2,35:1
Соотношение сторон в оригинале : 2,35:1
Режим частоты кадров : Постоянный
Частота кадров : 25,000 кадров/сек
Цветовое пространство : YUV
Субдискретизация насыщенности : 4:2:0
Битовая глубина : 8 бит
Тип развёртки : Прогрессивная
Бит/(Пиксели*Кадры) : 0.092
Размер потока : 743 Мбайт (44%)
Библиотека кодирования : x264 core 148 r2638 7599210
Настройки программы : cabac=1 / ref=11 / deblock=1:0:0 / analyse=0x3:0x133 / me=umh / subme=11 / psy=1 / psy_rd=1.10:0.15 / mixed_ref=1 / me_range=48 / chroma_me=1 / trellis=2 / 8x8dct=1 / cqm=0 / deadzone=21,11 / fast_pskip=0 / chroma_qp_offset=-3 / threads=8 / lookahead_threads=1 / sliced_threads=0 / nr=0 / decimate=0 / interlaced=0 / bluray_compat=0 / constrained_intra=0 / bframes=7 / b_pyramid=2 / b_adapt=2 / b_bias=0 / direct=3 / weightb=1 / open_gop=0 / weightp=2 / keyint=250 / keyint_min=25 / scenecut=40 / intra_refresh=0 / rc_lookahead=60 / rc=2pass / mbtree=0 / bitrate=708 / ratetol=1.0 / qcomp=0.60 / qpmin=0 / qpmax=69 / qpstep=4 / cplxblur=20.0 / qblur=0.5 / vbv_maxrate=40000 / vbv_bufsize=50000 / nal_hrd=none / filler=0 / ip_ratio=1.40 / pb_ratio=1.30 / aq=1:1.00
Default : Нет
Forced : Нет
Цветовой диапазон : Limited
Коэффициенты матрицы : BT.601

Аудио #1
Идентификатор : 2
Формат : AC-3
Формат/Информация : Audio Coding 3
Расширение режима : CM (complete main)
Параметр Endianness формата : Big
Идентификатор кодека : A_AC3
Продолжительность : 2 ч. 26 м.
Вид битрейта : Постоянный
Битрейт : 448 Кбит/сек
Каналы : 6 каналов
Расположение каналов : Front: L C R, Side: L R, LFE
Частота : 48,0 КГц
Частота кадров : 31,250 кадров/сек (1536 spf)
Метод сжатия : С потерями
Размер потока : 470 Мбайт (28%)
Язык : Italian
Default : Нет
Forced : Нет

Аудио #2
Идентификатор : 3
Формат : AC-3
Формат/Информация : Audio Coding 3
Расширение режима : CM (complete main)
Параметр Endianness формата : Big
Идентификатор кодека : A_AC3
Продолжительность : 2 ч. 26 м.
Вид битрейта : Постоянный
Битрейт : 448 Кбит/сек
Каналы : 6 каналов
Расположение каналов : Front: L C R, Side: L R, LFE
Частота : 48,0 КГц
Частота кадров : 31,250 кадров/сек (1536 spf)
Метод сжатия : С потерями
Размер потока : 470 Мбайт (28%)
Язык : Russian
Default : Да
Forced : Нет

Текст
Идентификатор : 4
Формат : UTF-8
Идентификатор кодека : S_TEXT/UTF8
Идентификатор кодека/Информация : UTF-8 Plain Text
Продолжительность : 2 ч. 19 м.
Битрейт : 76 бит/сек
Count of elements : 1527
Размер потока : 78,5 Кбайт (0%)
Язык : Russian
Default : Нет
Forced : Нет

Меню
00:00:00.000 : en:Chapter 01
00:05:35.280 : en:Chapter 02
00:13:13.920 : en:Chapter 03
00:18:25.440 : en:Chapter 04
00:24:05.800 : en:Chapter 05
00:34:21.320 : en:Chapter 06
00:42:22.920 : en:Chapter 07
00:47:46.360 : en:Chapter 08
00:57:16.880 : en:Chapter 09
01:03:07.880 : en:Chapter 10
01:07:16.040 : en:Chapter 11
01:12:35.920 : en:Chapter 12
01:16:55.680 : en:Chapter 13
01:22:08.880 : en:Chapter 14
01:27:14.040 : en:Chapter 15
01:32:46.280 : en:Chapter 16
01:37:55.080 : en:Chapter 17
01:44:55.040 : en:Chapter 18
01:50:38.600 : en:Chapter 19
01:53:54.600 : en:Chapter 20
01:57:08.560 : en:Chapter 21
02:02:58.440 : en:Chapter 22
02:10:28.560 : en:Chapter 23
02:20:55.680 : en:Chapter 24
Релиз от: Temperest



Скачать Криминальный.роман.Romanzo.criminale.(Микеле.Плачидо).[2005.криминал.драма.DVDRip-AVC].[MVO]+[Sub].torrent без регистрации
Золото ЗОЛОТАЯ РАЗДАЧА! СКАЧАННОЕ НЕ ЗАСЧИТЫВАЕТСЯ! Золото
Дата: Зарегистрирован   [ Тип: внутренний ] Как тут cкачать?
MAGNET ссылка
MAGNET ссылка


Скачать .torrent

17 KB

Статус: проверено DHT
Скачан: торрент - 9 раз, раздача полностью - 15 раз
Размер: 1,65 GB
Оценка:  - (Голосов: 0)
Поблагодарили: 0
Поделиться ссылкой на эту раздачу с друзьями:
В контактеFacebookОдноклассникиTwitterLivejournalМой МирLiveinternet
 

 
Показать сообщения:    


Вы не можете начинать темы
Вы не можете отвечать на сообщения
Вы не можете редактировать свои сообщения
Вы не можете удалять свои сообщения
Вы не можете голосовать в опросах
Вы не можете прикреплять файлы к сообщениям
Вы можете скачивать файлы