Loading...
Error

Скачать Большие каникулы / Les Grandes vacances (Жан Жиро) [1967, комедия, BDRip-AVC] [MVO]x2+[DVO] торрент без регистрации

 
Статистика раздачи
Размер:  2,18 GB   |    Скачан:  9 раз
Сидов:  1  [  0 KB/s  ]  
 
Автор Сообщение

Marsianka

[] 

Информация о фильме
Название: Большие каникулы
Оригинальное название: Les Grandes vacances
Год выхода: 1967
Жанр: комедия
Режиссер: Жан Жиро
В ролях: Луи де Фюнес, Франсуа Лессиа, Оливье де Фюнес, Ферди Мэйн, Клод Жансак, Ги Гроссо, Морис Риш, Мартина Келли, Марио Давид, Жак Динам, Доминик Даврэй, Макс Монтаван, Жан Фаллу

О фильме:
Мсье Боскье, директор престижной частной школы-интерната, чувствует себя опозоренным, узнав, что его старший сын Филипп провалил экзамен по английскому языку. Боскье решает на время летних каникул отправить сына по языковому обмену в Великобританию, в одну английскую семью, чтобы он улучшил там свой английский. На время его отсутствия в семье Боскье поселится английская школьница Ширли Мак Фаррелл, которая, в свою очередь, будет совершенствоваться во французском.
Однако Филипп не так уж горит желанием ехать куда-то — у него с друзьями намечается летнее путешествие на яхте, о котором он давно мечтал. В Англию вместо себя он отправляет своего школьного друга Мишоне. Оказавшись там, Мишоне заболевает вскоре от непривычной английской еды. Мсье Боскье приезжает навестить своего больного якобы сына и, конечно, обман тут же раскрывается. В это же время его настоящий сын и эта самая их гостья, девчонка-англичанка, вместе весело проводят время где-то на яхте. Боскье тут же отправляется на их поиски — ведь отец Ширли, мистер Мак Фаррелл, того и гляди явится к ним домой, чтобы проведать дочку.


Страна: Франция, Италия
Студия: Les Films Copernic, Ascot, Cineraid
Продолжительность: 01:29:34
Перевод: Профессиональный многоголосый, профессиональный двухголосый

Файл
Качество: BDRip-AVC (Les grandes vacances by D_I_A_B_L_O Blu-Ray Remux)
Видео: MPEG-4 AVC, 2710 Кбит/с, 1024x432, 24 кадр/с
Аудио #1: AC3, 2 ch, 192 Кбит/с | Профессиональный многоголосый (Останкино)
Аудио #2: AC3, 2 ch, 192 Кбит/с | Профессиональный многоголосый (Светла)
Аудио #3: AC3, 2 ch, 192 Кбит/с | Профессиональный двухлосый (Деваль-Видео)
Аудио #4: AC3, 2 ch, 192 Кбит/с | Французский
Общее
Уникальный идентификатор : 190393949843459427174562896341575315333 (0x8F3C8A79F42F3251AFBB529C82CEAF85)
Полное имя : Les.Grandes.Vacances.1967.BDRip-AVC.mkv
Формат : Matroska
Версия формата : Version 4 / Version 2
Размер файла : 2,18 Гбайт
Продолжительность : 1 ч. 29 м.
Общий поток : 3481 Кбит/сек
Название фильма : Les Grandes vacances by Koenig
Дата кодирования : UTC 2016-10-09 07:20:45
Программа кодирования : mkvmerge v9.2.0 ('Photograph') 32bit
Библиотека кодирования : libebml v1.3.3 + libmatroska v1.4.4
Обложка : Yes
Attachments : cover.jpg

Видео
Идентификатор : 1
Формат : AVC
Формат/Информация : Advanced Video Codec
Профиль формата : High@L4.1
Параметр CABAC формата : Да
Параметр ReFrames формата : 10 кадров
Идентификатор кодека : V_MPEG4/ISO/AVC
Продолжительность : 1 ч. 29 м.
Битрейт : 2710 Кбит/сек
Ширина : 1024 пикселя
Высота : 432 пикселя
Соотношение сторон : 2,40:1
Режим частоты кадров : Постоянный
Частота кадров : 24,000 кадра/сек
Цветовое пространство : YUV
Субдискретизация насыщенности : 4:2:0
Битовая глубина : 8 бит
Тип развёртки : Прогрессивная
Бит/(Пиксели*Кадры) : 0.255
Размер потока : 1,70 Гбайт (78%)
Библиотека кодирования : x264 core 148 r2692 64f4e24
Настройки программы : cabac=1 / ref=10 / deblock=1:0:0 / analyse=0x3:0x133 / me=esa / subme=10 / psy=1 / psy_rd=1.00:0.00 / mixed_ref=1 / me_range=32 / chroma_me=1 / trellis=2 / 8x8dct=1 / cqm=0 / deadzone=21,11 / fast_pskip=1 / chroma_qp_offset=-2 / threads=3 / lookahead_threads=1 / sliced_threads=0 / nr=0 / decimate=1 / interlaced=0 / bluray_compat=0 / constrained_intra=0 / bframes=11 / b_pyramid=2 / b_adapt=2 / b_bias=0 / direct=1 / weightb=1 / open_gop=0 / weightp=2 / keyint=240 / keyint_min=24 / scenecut=40 / intra_refresh=0 / rc_lookahead=40 / rc=2pass / mbtree=1 / bitrate=2710 / ratetol=1.0 / qcomp=0.60 / qpmin=0 / qpmax=69 / qpstep=4 / cplxblur=20.0 / qblur=0.5 / vbv_maxrate=62500 / vbv_bufsize=50000 / nal_hrd=none / filler=0 / ip_ratio=1.40 / aq=1:1.00
Default : Да
Forced : Нет

Аудио #1
Идентификатор : 2
Формат : AC-3
Формат/Информация : Audio Coding 3
Расширение режима : CM (complete main)
Параметр Endianness формата : Big
Идентификатор кодека : A_AC3
Продолжительность : 1 ч. 29 м.
Вид битрейта : Постоянный
Битрейт : 192 Кбит/сек
Каналы : 2 канала
Расположение каналов : Front: L R
Частота : 48,0 КГц
Частота кадров : 31,250 кадров/сек (1536 spf)
Метод сжатия : С потерями
Размер потока : 123 Мбайт (6%)
Заголовок : MVO - Останкино
Язык : Russian
Default : Да
Forced : Нет

Аудио #2
Идентификатор : 3
Формат : AC-3
Формат/Информация : Audio Coding 3
Расширение режима : CM (complete main)
Параметр Endianness формата : Big
Идентификатор кодека : A_AC3
Продолжительность : 1 ч. 29 м.
Вид битрейта : Постоянный
Битрейт : 192 Кбит/сек
Каналы : 2 канала
Расположение каналов : Front: L R
Частота : 48,0 КГц
Частота кадров : 31,250 кадров/сек (1536 spf)
Метод сжатия : С потерями
Размер потока : 123 Мбайт (6%)
Заголовок : MVO - Светла
Язык : Russian
Default : Нет
Forced : Нет

Аудио #3
Идентификатор : 4
Формат : AC-3
Формат/Информация : Audio Coding 3
Расширение режима : CM (complete main)
Параметр Endianness формата : Big
Идентификатор кодека : A_AC3
Продолжительность : 1 ч. 29 м.
Вид битрейта : Постоянный
Битрейт : 192 Кбит/сек
Каналы : 2 канала
Расположение каналов : Front: L R
Частота : 48,0 КГц
Частота кадров : 31,250 кадров/сек (1536 spf)
Метод сжатия : С потерями
Размер потока : 123 Мбайт (6%)
Заголовок : DVO - Деваль-Видео
Язык : Russian
Default : Нет
Forced : Нет

Аудио #4
Идентификатор : 5
Формат : AC-3
Формат/Информация : Audio Coding 3
Расширение режима : CM (complete main)
Параметр Endianness формата : Big
Идентификатор кодека : A_AC3
Продолжительность : 1 ч. 29 м.
Вид битрейта : Постоянный
Битрейт : 192 Кбит/сек
Каналы : 2 канала
Расположение каналов : Front: L R
Частота : 48,0 КГц
Частота кадров : 31,250 кадров/сек (1536 spf)
Метод сжатия : С потерями
Размер потока : 123 Мбайт (6%)
Заголовок : Original
Язык : French
Default : Нет
Forced : Нет

Меню
00:00:00.000 : en:
00:08:21.540 : en:
00:15:07.416 : en:
00:21:12.039 : en:
00:28:59.250 : en:
00:35:36.750 : en:
00:41:44.833 : en:
00:49:13.875 : en:
00:57:13.083 : en:
01:03:25.791 : en:
01:10:17.125 : en:
01:18:05.375 : en:
01:29:56.166 : en:



Скачать Большие.каникулы.Les.Grandes.vacances.(Жан.Жиро).[1967.комедия.BDRip-AVC].[MVO]x2+[DVO].torrent без регистрации
Золото ЗОЛОТАЯ РАЗДАЧА! СКАЧАННОЕ НЕ ЗАСЧИТЫВАЕТСЯ! Золото
Дата: Зарегистрирован   [ Тип: внутренний ] Как тут cкачать?
MAGNET ссылка
MAGNET ссылка


Скачать .torrent

12 KB

Статус: проверено DHT
Скачан: торрент - 9 раз, раздача полностью - 3 раз
Размер: 2,18 GB
Оценка:  - (Голосов: 0)
Поблагодарили: 1
Поделиться ссылкой на эту раздачу с друзьями:
В контактеFacebookОдноклассникиTwitterLivejournalМой МирLiveinternet
 

 
Показать сообщения:    


Вы не можете начинать темы
Вы не можете отвечать на сообщения
Вы не можете редактировать свои сообщения
Вы не можете удалять свои сообщения
Вы не можете голосовать в опросах
Вы не можете прикреплять файлы к сообщениям
Вы можете скачивать файлы