Loading...
Error

Скачать Замечательная поездка / Timescape (Дэвид Туи) [1992, фантастика, триллер, драма, ... DVDRip-AVC] [DVO]+[AVO]+[Sub] торрент без регистрации

 
Статистика раздачи
Размер:  2,7 GB   |    Скачан:  8 раз

Полного источника не было: 22 минуты

 
Автор Сообщение

Marsianka

[] 

Название: Замечательная поездка
Оригинальное название: Timescape
Год выхода: 1992
Страна: США
Студия: Channel Communications, Drury Lane Holdings, Wild Street Pictures
Продолжительность: 01:34:38
Жанр: фантастика, триллер, драма, ...

Режиссер: Дэвид Туи
В ролях: Джефф Дэниелс, Ариана Ричардс, Эмилия Кроу, Джим Хейни, Мэрлин Лайтстоун, Джордж Мёрдок, Дэвид Уэллс, Николас Гест, Роберт Колбер, Тайм Уинтерс, ...

Перевод:
- Профессиональный (двухголосый, закадровый) ?
- Авторский (одноголосый, закадровый) Гаврилов Андрей Юрьевич

О фильме: В небольшом городе Greenglen есть небольшой семейный отель. Его владелец Бен Уилсон недавно потерял жену и остался один с дочерью-подростком Хилари. Чтобы немного развеяться после смерти супруги, отец и дочь на некоторое время покидают город. После возвращения они приводят отель в порядок и начинают принимать постояльцев. Но постояльцы оказываются какими-то странными ребятами. Они ведут себя так, как будто приехали в настоящий центр развлечений, где должно совершиться что-то грандиозное, а не в маленький, лишенный особых достопримечательностей городок. Истина выясняется довольно скоро. Странные туристы оказываются путешественниками во времени и прибыли они сюда отнюдь не случайно…



Кодек: x264
Качество: DVDRip-AVC
Видео: 748x572, 3500 kbps, 25 fps
Аудио #1: AC-3, 2 ch, 192 kbps (Rus) - DVO
Аудио #2: AC-3, 2 ch, 192 kbps (Rus) - AVO Гаврилов Андрей Юрьевич
Аудио #3: AC-3, 2 ch, 192 kbps (Eng)
Субтитры: Английские

x264 [info]: frame I:966 Avg QP:12.21 size: 59582
x264 [info]: frame P:27745 Avg QP:14.36 size: 31520
x264 [info]: frame B:113256 Avg QP:16.38 size: 13706
x264 [info]: consecutive B-frames: 1.2% 1.0% 5.0% 17.6% 16.6% 39.6% 14.5% 2.2% 1.2% 0.8% 0.2% 0.2% 0.1%

Общее
Уникальный идентификатор : 246161073653047103668370938421645252274 (0xB930E5F6461E770FB5132B5F6A0596B2)
Полное имя : Замечательная поездка (Timescape) 1992 DVDRip.mkv
Формат : Matroska
Версия формата : Version 2
Размер файла : 2,70 Гбайт
Продолжительность : 1 ч. 34 м.
Общий поток : 4078 Кбит/сек
Дата кодирования : UTC 2016-10-07 18:49:00
Программа кодирования : mkvmerge v4.0.0 ('The Stars were mine') сборка от Jun 6 2010 16:18:42
Библиотека кодирования : libebml v1.0.0 + libmatroska v1.0.0

Видео
Идентификатор : 1
Формат : AVC
Формат/Информация : Advanced Video Codec
Профиль формата : High@L4.1
Параметр CABAC формата : Да
Параметр ReFrames формата : 12 кадров
Идентификатор кодека : V_MPEG4/ISO/AVC
Продолжительность : 1 ч. 34 м.
Битрейт : 3500 Кбит/сек
Ширина : 748 пикселей
Высота : 572 пикселя
Соотношение сторон : 4:3
Режим частоты кадров : Постоянный
Частота кадров : 25,000 кадров/сек
Цветовое пространство : YUV
Субдискретизация насыщенности : 4:2:0
Битовая глубина : 8 бит
Тип развёртки : Прогрессивная
Бит/(Пиксели*Кадры) : 0.327
Размер потока : 2,26 Гбайт (84%)
Библиотека кодирования : x264 core 146 r2538 121396c
Настройки программы : cabac=1 / ref=12 / deblock=1:-3:-3 / analyse=0x3:0x133 / me=umh / subme=11 / psy=1 / psy_rd=1.00:0.00 / mixed_ref=1 / me_range=32 / chroma_me=1 / trellis=2 / 8x8dct=1 / cqm=0 / deadzone=21,11 / fast_pskip=0 / chroma_qp_offset=-2 / threads=12 / lookahead_threads=2 / sliced_threads=0 / nr=0 / decimate=0 / interlaced=0 / bluray_compat=0 / constrained_intra=0 / bframes=12 / b_pyramid=2 / b_adapt=2 / b_bias=0 / direct=3 / weightb=1 / open_gop=0 / weightp=2 / keyint=250 / keyint_min=25 / scenecut=40 / intra_refresh=0 / rc=2pass / mbtree=0 / bitrate=3500 / ratetol=1.0 / qcomp=0.60 / qpmin=0 / qpmax=69 / qpstep=4 / cplxblur=20.0 / qblur=0.5 / ip_ratio=1.40 / pb_ratio=1.30 / aq=1:0.80
Язык : English
Default : Нет
Forced : Нет

Аудио #1
Идентификатор : 2
Формат : AC-3
Формат/Информация : Audio Coding 3
Расширение режима : CM (complete main)
Параметр Endianness формата : Big
Идентификатор кодека : A_AC3
Продолжительность : 1 ч. 34 м.
Вид битрейта : Постоянный
Битрейт : 192 Кбит/сек
Каналы : 2 канала
Расположение каналов : Front: L R
Частота : 48,0 КГц
Частота кадров : 31,250 кадров/сек (1536 spf)
Метод сжатия : С потерями
Размер потока : 130 Мбайт (5%)
Заголовок : DVO
Язык : Russian
Default : Нет
Forced : Нет

Аудио #2
Идентификатор : 3
Формат : AC-3
Формат/Информация : Audio Coding 3
Расширение режима : CM (complete main)
Параметр Endianness формата : Big
Идентификатор кодека : A_AC3
Продолжительность : 1 ч. 34 м.
Вид битрейта : Постоянный
Битрейт : 192 Кбит/сек
Каналы : 2 канала
Расположение каналов : Front: L R
Частота : 48,0 КГц
Частота кадров : 31,250 кадров/сек (1536 spf)
Метод сжатия : С потерями
Размер потока : 130 Мбайт (5%)
Заголовок : AVO Гаврилов Андрей Юрьевич
Язык : Russian
Default : Нет
Forced : Нет

Аудио #3
Идентификатор : 4
Формат : AC-3
Формат/Информация : Audio Coding 3
Расширение режима : CM (complete main)
Параметр Endianness формата : Big
Идентификатор кодека : A_AC3
Продолжительность : 1 ч. 34 м.
Вид битрейта : Постоянный
Битрейт : 192 Кбит/сек
Каналы : 2 канала
Расположение каналов : Front: L R
Частота : 48,0 КГц
Частота кадров : 31,250 кадров/сек (1536 spf)
Метод сжатия : С потерями
Размер потока : 130 Мбайт (5%)
Язык : English
Default : Нет
Forced : Нет

Текст
Идентификатор : 5
Формат : UTF-8
Идентификатор кодека : S_TEXT/UTF8
Идентификатор кодека/Информация : UTF-8 Plain Text
Язык : English
Default : Нет
Forced : Нет



Скачать Замечательная.поездка.Timescape.(Дэвид.Туи).[1992.фантастика.триллер.драма.DVDRip-AVC].[DVO]+[AVO]+[Sub].torrent без регистрации
Золото ЗОЛОТАЯ РАЗДАЧА! СКАЧАННОЕ НЕ ЗАСЧИТЫВАЕТСЯ! Золото
Дата: Зарегистрирован   [ Тип: внутренний ] Как тут cкачать?
MAGNET ссылка
MAGNET ссылка


Скачать .torrent

14 KB

Статус: проверено DHT
Скачан: торрент - 8 раз, раздача полностью - 11 раз
Размер: 2,7 GB
Оценка:  - (Голосов: 0)
Поблагодарили: 2
Поделиться ссылкой на эту раздачу с друзьями:
В контактеFacebookОдноклассникиTwitterLivejournalМой МирLiveinternet
 

 
Показать сообщения:    


Вы не можете начинать темы
Вы не можете отвечать на сообщения
Вы не можете редактировать свои сообщения
Вы не можете удалять свои сообщения
Вы не можете голосовать в опросах
Вы не можете прикреплять файлы к сообщениям
Вы можете скачивать файлы