Loading...
Error

Скачать Странный ребенок / The Godsend (Гэбриэлль Бомонт) [1980, ужасы, драма, детектив, HDRip] [AVO (Юрий Немахов)] торрент без регистрации

 
Статистика раздачи
Размер:  1,46 GB   |    Скачан:  13 раз
Сидов:  1  [  0 KB/s  ]  
 
Автор Сообщение

Marsianka

[] 

Страна: Великобритания
Жанр: ужасы, драма, детектив
Год выпуска: 1980
Продолжительность: 01:25:55

Перевод: Авторский (одноголосый закадровый) Юрий Немахов
Cубтитры: нет
Режиссер: Гэбриэлль Бомонт / Gabrielle Beaumont

В ролях: Малкольм Стоддард, Сид Хейман, Анджела Плезенс, Патрик Барр, Вильгельмина Грин, Джоэнн Бурман, Анджела Димер, Кларисса Янг, Ли Грегори

Описание: В доме большой английской семьи появляется беременная женщина, которая вскоре после родов исчезает. Члены семейства решают оставить новорождённую девочку, не подозревая, каким злом для них это обернётся в будущем.

Автор рипа: Sem-te

Релиз от:


Исходник: The.Godsend.1980.1080p.BluRay.x264-SADPANDA
Качество видео: HDRip
Формат видео: AVI

Видео: 704x400 (1.76:1), 23.976 fps, XviD build 73 ~2233 kbps avg, 0.33 bit/pixel
Аудио: 48 kHz, AC3 Dolby Digital, 2/0 (L,R) ch, ~192 kbps
Размер: 1496.61 Mb (1/3 DVD-R)

General
Format : AVI
Format/Info : Audio Video Interleave
File size : 1.46 GiB
Duration : 1h 25mn
Overall bit rate : 2 435 Kbps
Writing application : VirtualDubMod 1.5.10.3 | www.virtualdub-fr.org || (build 2550/release)
Writing library : VirtualDubMod build 2550/release

Video
ID : 0
Format : MPEG-4 Visual
Format profile : Advanced Simple@L5
Format settings, BVOP : 1
Format settings, QPel : No
Format settings, GMC : No warppoints
Format settings, Matrix : Custom
Codec ID : XVID
Codec ID/Hint : XviD
Duration : 1h 25mn
Bit rate : 2 234 Kbps
Width : 704 pixels
Height : 400 pixels
Display aspect ratio : 16:9
Frame rate : 23.976 fps
Color space : YUV
Chroma subsampling : 4:2:0
Bit depth : 8 bits
Scan type : Progressive
Compression mode : Lossy
Bits/(Pixel*Frame) : 0.331
Stream size : 1.34 GiB (92%)
Writing library : XviD 73

Audio
ID : 1
Format : AC-3
Format/Info : Audio Coding 3
Mode extension : CM (complete main)
Format settings, Endianness : Big
Codec ID : 2000
Duration : 1h 25mn
Bit rate mode : Constant
Bit rate : 192 Kbps
Channel(s) : 2 channels
Channel positions : Front: L R
Sampling rate : 48.0 KHz
Bit depth : 16 bits
Compression mode : Lossy
Stream size : 118 MiB (8%)
Alignment : Split accross interleaves
Interleave, duration : 42 ms (1.00 video frame)
Interleave, preload duration : 500 ms



Скачать Странный.ребенок.The.Godsend.(Гэбриэлль.Бомонт).[1980.ужасы.драма.детектив.HDRip].[AVO.(Юрий.Немахов)].torrent без регистрации
Золото ЗОЛОТАЯ РАЗДАЧА! СКАЧАННОЕ НЕ ЗАСЧИТЫВАЕТСЯ! Золото
Дата: Зарегистрирован   [ Тип: внутренний ] Как тут cкачать?
MAGNET ссылка
MAGNET ссылка


Скачать .torrent

15 KB

Статус: проверено DHT
Скачан: торрент - 13 раз, раздача полностью - 16 раз
Размер: 1,46 GB
Оценка:  - (Голосов: 0)
Поблагодарили: 0
Поделиться ссылкой на эту раздачу с друзьями:
В контактеFacebookОдноклассникиTwitterLivejournalМой МирLiveinternet
 

 
Показать сообщения:    


Вы не можете начинать темы
Вы не можете отвечать на сообщения
Вы не можете редактировать свои сообщения
Вы не можете удалять свои сообщения
Вы не можете голосовать в опросах
Вы не можете прикреплять файлы к сообщениям
Вы можете скачивать файлы