Loading...
Error

Скачать Смертельные узы / Wedlock (Льюис Тиг) [1991, фантастика, боевик, триллер, драма, криминал, ..., DVDRip-AVC] [DVO]x2+[AVO]x3+[Eng]+[Sub]x2 торрент без регистрации

 
Статистика раздачи
Размер:  3,91 GB   |    Скачан:  2 раза
Сидов:  1  [  0 KB/s  ]  
 
Автор Сообщение

Marsianka

[] 

Название: Смертельные узы
Оригинальное название: Wedlock
Год выхода: 1991
Страна: США, Великобритания
Студия: Home Box Office (HBO), Incorporated Television Company (ITC)
Продолжительность: 01:42:24
Жанр: фантастика, боевик, триллер, драма, криминал, ...
Режиссер: Льюис Тиг
В ролях: Рутгер Хауэр, Мими Роджерс, Джоан Чэнь, Джеймс Римар, Стивен Тоболовски, Бейзил Уоллес, Гранд Л. Буш, Денис Форест, Гленн Пламмер, Белль Эйвери, ...

О фильме: Фрэнк Уоррен, его любовница Ноэл и лучший друг Сэм совершают дерзкое, но тщательно продуманное ограбление Всемирного торгового центра, похитив бриллианты на многие миллионы долларов. При уходе с места ограбления Фрэнк был ранен своими же подельниками и попал в руки полиции, но «камушки» успел спрятать.
Фрэнка помещают в тюрьму, где нет ни стен, ни решеток, но на каждого заключенного надевается электронный ошейник, подключенный к ошейнику другого заключенного. Никто не знает своей пары, и стоит отойти друг от друга далее, чем на 100 метров, как взрывается бомба, вмонтированная в ошейник. Фрэнку удается найти свою пару, бежать они решаются вместе. По следам беглецов устремляются предатели, рассчитывающие выйти на спрятанные бриллианты, и… директор тюрьмы, организовавший побег…



Кодек: x264
Качество: DVDRip-AVC
Видео: 1020x548, 3800 kbps, 23,976 fps

- Профессиональный (двухголосый, закадровый) Ракурс (Екатеринбург-Арт)
- Профессиональный (двухголосый, закадровый) НТВ
- Авторский (одноголосый, закадровый) Гаврилов Андрей Юрьевич
- Авторский (одноголосый, закадровый) Королёв Владимир
- Авторский (одноголосый, закадровый) Дольский Андрей Игоревич
- Субтитры
Аудио #1: AC-3, 6 ch, 448 kbps (Rus) - DVO Ракурс
Аудио #2: AC-3, 2 ch, 192 kbps (Rus) - DVO НТВ
Аудио #3: AC-3, 2 ch, 192 kbps (Rus) - AVO Гаврилов Андрей Юрьевич
Аудио #4: AC-3, 2 ch, 192 kbps (Rus) - AVO Королёв Владимир
Аудио #5: AC-3, 2 ch, 192 kbps (Rus) - AVO Дольский Андрей Игоревич
Аудио #6: AC-3, 6 ch, 448 kbps (Eng)
Субтитры: Русские, Английские

x264 [info]: frame I:858 Avg QP:17.61 size: 67703
x264 [info]: frame P:32619 Avg QP:20.04 size: 33021
x264 [info]: frame B:113846 Avg QP:21.97 size: 15656
x264 [info]: consecutive B-frames: 1.3% 2.7% 11.1% 21.6% 19.0% 37.1% 4.3% 1.3% 0.8% 0.3% 0.2% 0.2% 0.1%

Общее
Уникальный идентификатор : 238804829172587840312007859114200248501 (0xB3A8231B655257C1A33911AE6807B0B5)
Полное имя : Смертельные узы (Wedlock) 1991 DVDRip-AVC.mkv
Формат : Matroska
Версия формата : Version 2
Размер файла : 3,91 Гбайт
Продолжительность : 1 ч. 42 м.
Общий поток : 5466 Кбит/сек
Дата кодирования : UTC 2016-10-11 18:36:41
Программа кодирования : mkvmerge v4.0.0 ('The Stars were mine') сборка от Jun 6 2010 16:18:42
Библиотека кодирования : libebml v1.0.0 + libmatroska v1.0.0

Видео
Идентификатор : 1
Формат : AVC
Формат/Информация : Advanced Video Codec
Профиль формата : High@L4.1
Параметр CABAC формата : Да
Параметр ReFrames формата : 12 кадров
Идентификатор кодека : V_MPEG4/ISO/AVC
Продолжительность : 1 ч. 42 м.
Битрейт : 3800 Кбит/сек
Ширина : 1020 пикселей
Высота : 548 пикселей
Соотношение сторон : 1,85:1
Режим частоты кадров : Постоянный
Частота кадров : 23,976 (24000/1001) кадра/сек
Цветовое пространство : YUV
Субдискретизация насыщенности : 4:2:0
Битовая глубина : 8 бит
Тип развёртки : Прогрессивная
Бит/(Пиксели*Кадры) : 0.284
Размер потока : 2,64 Гбайт (68%)
Библиотека кодирования : x264 core 146 r2538 121396c
Настройки программы : cabac=1 / ref=12 / deblock=1:-3:-3 / analyse=0x3:0x133 / me=umh / subme=11 / psy=1 / psy_rd=1.00:0.00 / mixed_ref=1 / me_range=32 / chroma_me=1 / trellis=2 / 8x8dct=1 / cqm=0 / deadzone=21,11 / fast_pskip=0 / chroma_qp_offset=-2 / threads=12 / lookahead_threads=2 / sliced_threads=0 / nr=0 / decimate=0 / interlaced=0 / bluray_compat=0 / constrained_intra=0 / bframes=12 / b_pyramid=2 / b_adapt=2 / b_bias=0 / direct=3 / weightb=1 / open_gop=0 / weightp=2 / keyint=240 / keyint_min=23 / scenecut=40 / intra_refresh=0 / rc=2pass / mbtree=0 / bitrate=3800 / ratetol=1.0 / qcomp=0.60 / qpmin=0 / qpmax=69 / qpstep=4 / cplxblur=20.0 / qblur=0.5 / ip_ratio=1.40 / pb_ratio=1.30 / aq=1:0.80
Язык : English
Default : Нет
Forced : Нет

Аудио #1
Идентификатор : 2
Формат : AC-3
Формат/Информация : Audio Coding 3
Расширение режима : CM (complete main)
Параметр Endianness формата : Big
Идентификатор кодека : A_AC3
Продолжительность : 1 ч. 42 м.
Вид битрейта : Постоянный
Битрейт : 448 Кбит/сек
Каналы : 6 каналов
Расположение каналов : Front: L C R, Side: L R, LFE
Частота : 48,0 КГц
Частота кадров : 31,250 кадров/сек (1536 spf)
Метод сжатия : С потерями
Размер потока : 328 Мбайт (8%)
Заголовок : DVO Ракурс по заказу Екатеринбург-Арт
Язык : Russian
Default : Нет
Forced : Нет

Аудио #2
Идентификатор : 3
Формат : AC-3
Формат/Информация : Audio Coding 3
Расширение режима : CM (complete main)
Параметр Endianness формата : Big
Идентификатор кодека : A_AC3
Продолжительность : 1 ч. 42 м.
Вид битрейта : Постоянный
Битрейт : 192 Кбит/сек
Каналы : 2 канала
Расположение каналов : Front: L R
Частота : 48,0 КГц
Частота кадров : 31,250 кадров/сек (1536 spf)
Метод сжатия : С потерями
Размер потока : 141 Мбайт (4%)
Заголовок : DVO НТВ
Язык : Russian
Default : Нет
Forced : Нет

Аудио #3
Идентификатор : 4
Формат : AC-3
Формат/Информация : Audio Coding 3
Расширение режима : CM (complete main)
Параметр Endianness формата : Big
Идентификатор кодека : A_AC3
Продолжительность : 1 ч. 42 м.
Вид битрейта : Постоянный
Битрейт : 192 Кбит/сек
Каналы : 2 канала
Расположение каналов : Front: L R
Частота : 48,0 КГц
Частота кадров : 31,250 кадров/сек (1536 spf)
Метод сжатия : С потерями
Размер потока : 141 Мбайт (4%)
Заголовок : AVO Гаврилов Андрей Юрьевич
Язык : Russian
Default : Нет
Forced : Нет

Аудио #4
Идентификатор : 5
Формат : AC-3
Формат/Информация : Audio Coding 3
Расширение режима : CM (complete main)
Параметр Endianness формата : Big
Идентификатор кодека : A_AC3
Продолжительность : 1 ч. 42 м.
Вид битрейта : Постоянный
Битрейт : 192 Кбит/сек
Каналы : 2 канала
Расположение каналов : Front: L R
Частота : 48,0 КГц
Частота кадров : 31,250 кадров/сек (1536 spf)
Метод сжатия : С потерями
Размер потока : 141 Мбайт (4%)
Заголовок : AVO Королёв Владимир
Язык : Russian
Default : Нет
Forced : Нет

Аудио #5
Идентификатор : 6
Формат : AC-3
Формат/Информация : Audio Coding 3
Расширение режима : CM (complete main)
Параметр Endianness формата : Big
Идентификатор кодека : A_AC3
Продолжительность : 1 ч. 42 м.
Вид битрейта : Постоянный
Битрейт : 192 Кбит/сек
Каналы : 2 канала
Расположение каналов : Front: L R
Частота : 48,0 КГц
Частота кадров : 31,250 кадров/сек (1536 spf)
Метод сжатия : С потерями
Размер потока : 141 Мбайт (4%)
Заголовок : AVO Дольский Андрей Игоревич
Язык : Russian
Default : Нет
Forced : Нет

Аудио #6
Идентификатор : 7
Формат : AC-3
Формат/Информация : Audio Coding 3
Расширение режима : CM (complete main)
Параметр Endianness формата : Big
Идентификатор кодека : A_AC3
Продолжительность : 1 ч. 42 м.
Вид битрейта : Постоянный
Битрейт : 448 Кбит/сек
Каналы : 6 каналов
Расположение каналов : Front: L C R, Side: L R, LFE
Частота : 48,0 КГц
Частота кадров : 31,250 кадров/сек (1536 spf)
Метод сжатия : С потерями
Размер потока : 328 Мбайт (8%)
Язык : English
Default : Нет
Forced : Нет

Текст #1
Идентификатор : 8
Формат : UTF-8
Идентификатор кодека : S_TEXT/UTF8
Идентификатор кодека/Информация : UTF-8 Plain Text
Язык : Russian
Default : Нет
Forced : Нет

Текст #2
Идентификатор : 9
Формат : UTF-8
Идентификатор кодека : S_TEXT/UTF8
Идентификатор кодека/Информация : UTF-8 Plain Text
Язык : English
Default : Нет
Forced : Нет



Скачать Смертельные.узы.Wedlock.(Льюис.Тиг).[1991.фантастика.боевик.триллер.драма.криминал.DVDRip-AVC].[DVO]x2+[AVO]x3+[Eng]+[Sub]x2.torrent без регистрации
Золото ЗОЛОТАЯ РАЗДАЧА! СКАЧАННОЕ НЕ ЗАСЧИТЫВАЕТСЯ! Золото
Дата: Зарегистрирован   [ Тип: внутренний ] Как тут cкачать?
MAGNET ссылка
MAGNET ссылка


Скачать .torrent

20 KB

Статус: проверено DHT
Скачан: торрент - 2 раз, раздача полностью - 3 раз
Размер: 3,91 GB
Оценка:  - (Голосов: 0)
Поблагодарили: 1
Поделиться ссылкой на эту раздачу с друзьями:
В контактеFacebookОдноклассникиTwitterLivejournalМой МирLiveinternet
 

 
Показать сообщения:    


Вы не можете начинать темы
Вы не можете отвечать на сообщения
Вы не можете редактировать свои сообщения
Вы не можете удалять свои сообщения
Вы не можете голосовать в опросах
Вы не можете прикреплять файлы к сообщениям
Вы можете скачивать файлы