Loading...
Error

Скачать Доктор Чужой / Dr. Alien (Дэвид ДеКото) [1989, фантастика, комедия, DVDRip] [AVO]+[Оригинал] торрент без регистрации

 
Статистика раздачи
Размер:  1,46 GB   |    Скачан:  11 раз
Сидов:  2  [  0 KB/s  ]  
 
Автор Сообщение

Marsianka

[] 

«She has the cure for growing pains...»
Страна: США
Жанр: фантастика, комедия
Год выпуска: 1989
Продолжительность: 01:23:40

Перевод: Авторский (одноголосый, закадровый)
Оригинальная аудиодорожка: английский
Cубтитры: нет

Режиссер: Дэвид ДеКото / David DeCoteau

В ролях: Билли Джейн, Джуди Лэндерс, Оливия Бэраш, Стюарт Фрэткин, Рэймонд О’Коннор, Арлин Голонка, Джим Хэккет, Роберт Джейн, Джули Грей, Скотт Моррис...

Описание:Доктор Аккерман, новая учительница биологии, так хорошо изменила внешность, что никто и не подозревает, что она на самом деле ученая — пришелец. Она экспериментирует на студенте-первокурснике Уэсли, быстро становящемся сексуальным магнитом, перед которым не может устоять ни одна девушка, в их числе и сама Доктор-пришелец…


Исходник: DVD5 R1
Тип релиза: DVDRip
Контейнер: AVI

Видео: 688x528 (4:3), 25 fps, XviD ~ 2290 kbps avg, 0.263 bit/pixel
Аудио: 48 kHz, АС3, 2 ch, 192.00 kbps

Релиз от:

Общее
Полное имя : Doktor.chuzhoy.1989.A.DVDRip_[Youtracker]_by_avproh.avi
Формат : AVI
Формат/Информация : Audio Video Interleave
Размер файла : 1,46 Гбайт
Продолжительность : 1 ч. 23 м.
Общий поток : 2491 Кбит/сек
Программа кодирования : VirtualDubMod 1.5.10.3 (build 2550/release)
Библиотека кодирования : VirtualDubMod build 2550/release

Видео
Идентификатор : 0
Формат : MPEG-4 Visual
Профиль формата : Advanced Simple@L5
Параметр BVOP формата : 1
Параметр QPel формата : Нет
Параметр GMC формата : Без точки перехода
Параметр матрицы формата : Выборочная
Идентификатор кодека : XVID
Идентификатор кодека/Подсказка : XviD
Продолжительность : 1 ч. 23 м.
Битрейт : 2290 Кбит/сек
Ширина : 688 пикселей
Высота : 528 пикселей
Соотношение сторон : 4:3
Частота кадров : 23,976 кадра/сек
Цветовое пространство : YUV
Субдискретизация насыщенности : 4:2:0
Битовая глубина : 8 бит
Тип развёртки : Прогрессивная
Метод сжатия : С потерями
Бит/(Пиксели*Кадры) : 0.263
Размер потока : 1,34 Гбайт (92%)
Библиотека кодирования : XviD 65

Аудио
Идентификатор : 1
Формат : AC-3
Формат/Информация : Audio Coding 3
Расширение режима : CM (complete main)
Параметр Endianness формата : Big
Идентификатор кодека : 2000
Продолжительность : 1 ч. 23 м.
Вид битрейта : Постоянный
Битрейт : 192 Кбит/сек
Каналы : 2 канала
Расположение каналов : Front: L R
Частота : 48,0 КГц
Битовая глубина : 16 бит
Метод сжатия : С потерями
Размер потока : 115 Мбайт (8%)
Выравнивание : Разделение по промежуткам
Продолжительность промежутка : 42 мс. (1,00 видеокадр)
Время предзагрузки промежутка : 500 мс.



Скачать Доктор.Чужой.Dr.Alien.(Дэвид.ДеКото).[1989.фантастика.комедия.DVDRip].[AVO]+[Оригинал].torrent без регистрации
Золото ЗОЛОТАЯ РАЗДАЧА! СКАЧАННОЕ НЕ ЗАСЧИТЫВАЕТСЯ! Золото
Дата: Зарегистрирован   [ Тип: внешний ] Как тут cкачать?
MAGNET ссылка
MAGNET ссылка


Скачать .torrent

16 KB

Статус: проверено DHT
Скачан: торрент - 11 раз, раздача полностью - 14 раз
Размер: 1,46 GB
Оценка:  - (Голосов: 0)
Поблагодарили: 0
Поделиться ссылкой на эту раздачу с друзьями:
В контактеFacebookОдноклассникиTwitterLivejournalМой МирLiveinternet
 

 
Показать сообщения:    


Вы не можете начинать темы
Вы не можете отвечать на сообщения
Вы не можете редактировать свои сообщения
Вы не можете удалять свои сообщения
Вы не можете голосовать в опросах
Вы не можете прикреплять файлы к сообщениям
Вы можете скачивать файлы