Loading...
Error

Скачать Один из нас / One of Us (сезон 01) (Уильям МакГрегор) [2016, триллер, WEB-DLRip-AVC] [MVO (BaibaKo)]+[Eng] торрент без регистрации

 
Статистика раздачи
Размер:  4,45 GB   |    Скачан:  9 раз
Сидов:  2  [  0 KB/s  ]  
 
Автор Сообщение

МихаНЕзатор

[] 

Один из нас / One of Us


Страна: Великобритания
Производство: BBC Scotland
Год выпуска: 2016
Жанр: триллер
Режиссер: Уильям МакГрегор
Авторы сценария: Гарри Уильямс, Джек Уильямс

В ролях: Джорджина Кэмпбелл, Джозеф Демпси, Кейт Дики, Эдриен Эдмондсон, Стив Эветс, Лора Фрейзер, Гари Льюис, Джон Линч

Описание: В отдаленном сельском районе Шотландии происходит ужасающее двойное убийство, которое угрожает окончательно разрушить жизни двух семейств, бок о бок проживших столько лет...

Дата премьеры (мир): 23 июня 2016



Сезон: 1
Продолжительность: 4х ~00:58:00
Перевод: Любительский (многоголосый, закадровый) | Baibako
Субтитры: нет

Качество: WEB-DLRip-AVC
Формат: МР4
Видео кодек: AVC
Аудио кодек: АС3
Видео: 1024x576 (16:9), 25.000 fps, MPEG-4 AVC ~2 000 kbps avg
Аудио №1: 48.0 kHz, AC3 Dolby Digital, 2/0 (L,R) ch, ~384 kbps | RUS
Аудио №2: 48.0 kHz, AC3 Dolby Digital, 2/0 (L,R) ch, ~384 kbps | ENG

АНОНСЫ ПОПУЛЯРНЫХ РАЗДАЧ
General
Complete name : One.of.Us.s01e02.WEB-DLRip-AVC.Rus.Eng.BaibaKo.tv.mp4
Format : MPEG-4
Format profile : Base Media
Codec ID : isom (isom/iso2/avc1/mp41)
File size : 1.13 GiB
Duration : 58 min
Overall bit rate : 2 774 kb/s
Writing application : XviD4PSP 7.0.290 DAILY
HDVideo : Yes
encoding_info : MATROSKA / WEBM > MP4 Произвольный / H264 > X264 CBR 2000kbps HQ / AC3 > AC3 CBR 384kbps / AC3 > AC3 CBR 384kbps

Video
ID : 1
Format : AVC
Format/Info : Advanced Video Codec
Format profile : High@L4.1
Format settings, CABAC : Yes
Format settings, ReFrames : 4 frames
Codec ID : avc1
Codec ID/Info : Advanced Video Coding
Duration : 58 min
Bit rate : 2 000 kb/s
Width : 1 024 pixels
Height : 576 pixels
Display aspect ratio : 16:9
Frame rate mode : Constant
Frame rate : 25.000 FPS
Color space : YUV
Chroma subsampling : 4:2:0
Bit depth : 8 bits
Scan type : Progressive
Bits/(Pixel*Frame) : 0.136
Stream size : 838 MiB (72%)
Writing library : x264 core 148 r2705M 3f5ed56
Encoding settings : cabac=1 / ref=3 / deblock=1:-1:-1 / analyse=0x3:0x133 / me=hex / subme=7 / psy=1 / psy_rd=1.00:0.20 / mixed_ref=1 / me_range=16 / chroma_me=1 / trellis=1 / 8x8dct=1 / cqm=0 / deadzone=21,11 / fast_pskip=1 / chroma_qp_offset=-3 / threads=5 / lookahead_threads=1 / sliced_threads=0 / nr=0 / decimate=1 / interlaced=0 / bluray_compat=0 / constrained_intra=0 / bframes=3 / b_pyramid=2 / b_adapt=2 / b_bias=0 / direct=3 / weightb=1 / open_gop=0 / weightp=2 / keyint=250 / keyint_min=25 / scenecut=40 / intra_refresh=0 / rc_lookahead=40 / rc=cbr / mbtree=1 / bitrate=2000 / ratetol=1.0 / qcomp=0.60 / qpmin=0 / qpmax=69 / qpstep=4 / vbv_maxrate=2000 / vbv_bufsize=30000 / nal_hrd=none / filler=0 / ip_ratio=1.40 / aq=1:1.00
Language : English
Color range : Limited
Color primaries : BT.709
Transfer characteristics : BT.709
Matrix coefficients : BT.709

Audio #1
ID : 2
Format : AC-3
Format/Info : Audio Coding 3
Mode extension : CM (complete main)
Format settings, Endianness : Big
Codec ID : ac-3
Duration : 58 min
Bit rate mode : Constant
Bit rate : 384 kb/s
Channel(s) : 2 channels
Channel positions : Front: L R
Sampling rate : 48.0 kHz
Frame rate : 31.250 FPS (1536 spf)
Bit depth : 16 bits
Compression mode : Lossy
Stream size : 161 MiB (14%)
Language : Russian
Default : Yes
Alternate group : 1

Audio #2
ID : 3
Format : AC-3
Format/Info : Audio Coding 3
Mode extension : CM (complete main)
Format settings, Endianness : Big
Codec ID : ac-3
Duration : 58 min
Bit rate mode : Constant
Bit rate : 384 kb/s
Channel(s) : 2 channels
Channel positions : Front: L R
Sampling rate : 48.0 kHz
Frame rate : 31.250 FPS (1536 spf)
Bit depth : 16 bits
Compression mode : Lossy
Stream size : 161 MiB (14%)
Language : English
Default : No



Скачать Один.из.нас.One.of.Us.(сезон.01).(Уильям.МакГрегор).[2016.триллер.WEB-DLRip-AVC].[MVO.(BaibaKo)]+[Eng].torrent без регистрации
Золото ЗОЛОТАЯ РАЗДАЧА! СКАЧАННОЕ НЕ ЗАСЧИТЫВАЕТСЯ! Золото
Дата: Зарегистрирован   [ Тип: внешний ] Как тут cкачать?
MAGNET ссылка
MAGNET ссылка


Скачать .torrent

12 KB

Статус: проверено DHT
Скачан: торрент - 9 раз, раздача полностью - 11 раз
Размер: 4,45 GB
Оценка:  - (Голосов: 0)
Поблагодарили: 1
Поделиться ссылкой на эту раздачу с друзьями:
В контактеFacebookОдноклассникиTwitterLivejournalМой МирLiveinternet
 

 
Показать сообщения:    


Вы не можете начинать темы
Вы не можете отвечать на сообщения
Вы не можете редактировать свои сообщения
Вы не можете удалять свои сообщения
Вы не можете голосовать в опросах
Вы не можете прикреплять файлы к сообщениям
Вы можете скачивать файлы