Loading...
Error

Скачать Знамение / Knowing (Алекс Пройас) [2009, фантастика, триллер, драма, детектив, HDRip] [Dub]+[Sub] торрент без регистрации

 
Статистика раздачи
Размер:  751 MB   |    Скачан:  8 раз

Полного источника не было: 19 минут

 
Автор Сообщение

Marsianka

[] 

Информация о фильме
Название: Знамение
Оригинальное название: Knowing
Год выхода: 2009
Жанр: фантастика, триллер, драма, детектив
Режиссер: Алекс Пройас
В ролях: Николас Кейдж, Роуз Бирн, Чандлер Кентербери, Лара Робинсон, Бен Мендельсон, Д.Г. Малоуни, Надя Таунсенд, Алан Хопгуд, Эдриэнн Пикеринг, Джошуа Лонг

О фильме:
После вскрытия «временной капсулы», в которую в 1959 группа школьников поместила рисунки со своим видением будущего, в руки к профессору Джону Кестлеру попадает загадочный лист, сверху до низу исписанный цифрами. В поисках расшифровки содержания листа, Кестлер устанавливает загадочную связь между цифрами и крупнейшими мировыми бедствиями, произошедшими на Земле за последние 50 лет. Если верить цифрам, трагедий не избежать и в будущем, только теперь Кестлер знает, когда их ожидать. Но есть ли возможность их предотвратить? И самое главное: что будет, когда цепочка цифр кончится?


Страна: США, Великобритания, Австралия
Студия: Escape Artists, Goldcrest Pictures, Mystery Clock Cinema, Summit Entertainment
Продолжительность: 02:01:29
Перевод: Профессиональный (дублированный) - Blu-ray RUS

Файл
Кодек: XviD
Качество: HDRip
Видео: 640x272 (2.35:1), 23.976 fps, XviD build 73 ~726 kbps avg, 0.17 bit/pixel
Звук: 48 kHz, MPEG Layer 3, 2 ch, ~128.00 kbps avg
Субтитры: Русские (отдельный файл)

Семпл
General
Complete name : E:Изготовление рипаZnamenie.2009.HDRip.by shkiper.avi
Format : AVI
Format/Info : Audio Video Interleave
File size : 751 MiB
Duration : 2h 1mn
Overall bit rate : 864 Kbps
Writing application : VirtualDubMod 1.5.10.3 | www.virtualdub-fr.org || (build 2550/release)
Writing library : VirtualDubMod build 2550/release

Video
ID : 0
Format : MPEG-4 Visual
Format profile : Advanced Simple@L5
Format settings, BVOP : 1
Format settings, QPel : No
Format settings, GMC : No warppoints
Format settings, Matrix : Custom
Codec ID : XVID
Codec ID/Hint : XviD
Duration : 2h 1mn
Bit rate : 727 Kbps
Width : 640 pixels
Height : 272 pixels
Display aspect ratio : 2.35:1
Frame rate : 23.976 (23976/1000) fps
Color space : YUV
Chroma subsampling : 4:2:0
Bit depth : 8 bits
Scan type : Progressive
Compression mode : Lossy
Bits/(Pixel*Frame) : 0.174
Stream size : 632 MiB (84%)
Writing library : XviD 73

Audio
ID : 1
Format : MPEG Audio
Format version : Version 1
Format profile : Layer 3
Codec ID : 55
Codec ID/Hint : MP3
Duration : 2h 1mn
Bit rate mode : Constant
Bit rate : 128 Kbps
Channel(s) : 2 channels
Sampling rate : 48.0 KHz
Compression mode : Lossy
Stream size : 111 MiB (15%)
Alignment : Aligned on interleaves
Interleave, duration : 42 ms (1.00 video frame)
Interleave, preload duration : 504 ms
Writing library : LAME3.99r
Encoding settings : -m s -V 4 -q 2 -lowpass 17 -b 128
Релиз от:



Скачать Знамение.Knowing.(Алекс.Пройас).[2009.фантастика.триллер.драма.детектив.HDRip].[Dub]+[Sub].torrent без регистрации
Золото ЗОЛОТАЯ РАЗДАЧА! СКАЧАННОЕ НЕ ЗАСЧИТЫВАЕТСЯ! Золото
Дата: Зарегистрирован   [ Тип: внутренний ] Как тут cкачать?
MAGNET ссылка
MAGNET ссылка


Скачать .torrent

15 KB

Статус: проверено DHT
Скачан: торрент - 8 раз, раздача полностью - 2 раз
Размер: 751 MB
Оценка:  - (Голосов: 0)
Поблагодарили: 0
Поделиться ссылкой на эту раздачу с друзьями:
В контактеFacebookОдноклассникиTwitterLivejournalМой МирLiveinternet
 

 
Показать сообщения:    


Вы не можете начинать темы
Вы не можете отвечать на сообщения
Вы не можете редактировать свои сообщения
Вы не можете удалять свои сообщения
Вы не можете голосовать в опросах
Вы не можете прикреплять файлы к сообщениям
Вы можете скачивать файлы