Loading...
Error

Скачать Мир дикого Запада / Westworld +Bonys (Сезон 1, Серия 1-10 из 10 ) (Джонатан Нолан, Джонни Кэмпбелл, Ричард Дж. Льюис) [2016, Фантастика, триллер, вестерн , HDTVRip 1080p ] [MVO] [Kravec , English + Subs Rus,ENG] торрент без регистрации

 
Статистика раздачи
Размер:  41,91 GB   |    Скачан:  256 раз
Сидов:  1  [  0 KB/s  ]   Личеров:  1  [  0 KB/s  ]  
 
Автор Сообщение

Nikolai.Baranov

[] 



Мир дикого Запада / Westworld Сезон 1, Серия 1-10 из 10 + Западный мир / Westworld 1973 Blu-Ray Remux 1080p




Год выпуска: 2016
Выпущено: США , , Bad Robot, Jerry Weintraub Productions, Kilter Films, Warner Bros. Television
Жанр: Фантастика, триллер, вестерн
Продолжительность: 01:05:23
Сезон:1
Серия: 1-10
Количество серий в сезоне: 10

Озвучка 1: Профессиональный- Дублированный - Кравец- по заказу Amedia]-Русский

Роли озвучивали: Анатолий Дубанов, Станислав Концевич, Марина Гладкая, Игорь Сергеев, Сергей Куприянов, Светлана Кузнецова и другие

Озвучка 2: Профессиональный многоголосый -Английский -Оригинал

Субтитры: Русские, английские


MDB

Режиссер:Джонатан Нолан, Джонни Кэмпбелл, Ричард Дж. Льюис

В ролях: Энтони Хопкинс, Эд Харрис, Ивэн Рэйчел Вуд, Джеймс Марсден, Тэнди Ньютон, Джеффри Райт, Тесса Томпсон, Джимми Симпсон, Родриго Санторо, Шеннон Мари Вудворд


В футуристическом парке развлечений андроиды на фоне для исторических декораций становятся рабами людей, выполняя рутинные задания, пока в один момент сбой в программе не превращает их в опасных убийц.




Качество :HDTVRip 1080p
Формат: MKV
Видео кодек: H264
Видео: 5615Кбит/сек,1920х1080(16.9),в 23.976кадр/сек,AVC(Main@L4.1)(CABAC/2 Ref Frames)
Аудио Кодек:AC3
Аудио #1:AC3 , 640 Kbps, 48.0 KHz, 6 ch- -Кравец-Русский
Аудио #2: AC3, 640 Kbps, 48.0 KHz,6 ch - - English-Английский -Оригинал


Звуковая дорожка сделана путем наложения чистого голоса озвучивателей на центральный канал оригинальной дорожки. Качество идентично звуковой дорожке.




Западный мир / Westworld 1973 Blu-Ray Remux 1080p


1. Оригинал / Original
2. Банальный сюжет / Chestnut
3. Бродяга / The Stray
4. Теория Диссонанса / Dissonance Theory
5. Воздаяние / Contrapasso
6.
7. Обман зрения / Trompe L'Oeil
8. Признаки разложения / Trace Decay
9. Хорошо темперированный клавир / The Well-Tempered Clavier
10.



Общее
Уникальный идентификатор : 182625970019590149174722296619676381317 (0x89647B806C9F7278B91A11C7FD5EB085)
Полное имя : C:\МОЙ ДОСУГ\МИР ДИКОГО ЗАПАДА\WESTWORLD_2016_S01_RUS_DUB_Kravec_Eng_DD5.1_N.B_HDTV_1080p\WESTWORLD_2016_S01E01_RUS_DUB_Kravec_Eng_DD5.1_N.B_HDTV_1080p.mkv
Формат : Matroska
Версия формата : Version 4 / Version 2
Размер файла : 3,28 Гбайт
Продолжительность : 1 ч. 8 м.
Общий поток : 6897 Кбит/сек
Название фильма : WESTWORLD_2016_S01E01_RUS_DUB_Kravec_Eng_DD5.1_N.B_HDTV_1080p
Дата кодирования : UTC 2016-10-13 16:50:50
Программа кодирования : mkvmerge v9.4.2 ('So High') 64bit
Библиотека кодирования : libebml v1.3.4 + libmatroska v1.4.5

Видео
Идентификатор : 1
Формат : AVC
Формат/Информация : Advanced Video Codec
Профиль формата : Main@L4.1
Параметр CABAC формата : Да
Параметр ReFrames формата : 2 кадра
Идентификатор кодека : V_MPEG4/ISO/AVC
Продолжительность : 1 ч. 8 м.
Битрейт : 5615 Кбит/сек
Ширина : 1920 пикселей
Высота : 1080 пикселей
Соотношение сторон : 16:9
Режим частоты кадров : Постоянный
Частота кадров : 23,976 (24000/1001) кадра/сек
Цветовое пространство : YUV
Субдискретизация насыщенности : 4:2:0
Битовая глубина : 8 бит
Тип развёртки : Прогрессивная
Бит/(Пиксели*Кадры) : 0.113
Размер потока : 2,67 Гбайт (81%)
Заголовок : WESTWORLD_2016_S01E01_RUS_DUB_Kravec_Eng_DD5.1_N.B_HDTV_1080p
Язык : English
Default : Да
Forced : Нет

Аудио #1
Идентификатор : 4
Формат : AC-3
Формат/Информация : Audio Coding 3
Расширение режима : CM (complete main)
Параметр Endianness формата : Big
Идентификатор кодека : A_AC3
Продолжительность : 1 ч. 8 м.
Вид битрейта : Постоянный
Битрейт : 640 Кбит/сек
Каналы : 6 каналов
Расположение каналов : Front: L C R, Side: L R, LFE
Частота : 48,0 КГц
Частота кадров : 31,250 кадров/сек (1536 spf)
Метод сжатия : С потерями
Размер потока : 312 Мбайт (9%)
Заголовок : DUB Kravec @DD5.1 AC3, 640 Kbps, 48.0 KHz, 6 ch
Язык : Russian
Default : Да
Forced : Нет

Аудио #2
Идентификатор : 5
Формат : AC-3
Формат/Информация : Audio Coding 3
Расширение режима : CM (complete main)
Параметр Endianness формата : Big
Идентификатор кодека : A_AC3
Продолжительность : 1 ч. 8 м.
Вид битрейта : Постоянный
Битрейт : 640 Кбит/сек
Каналы : 6 каналов
Расположение каналов : Front: L C R, Side: L R, LFE
Частота : 48,0 КГц
Частота кадров : 31,250 кадров/сек (1536 spf)
Метод сжатия : С потерями
Размер потока : 312 Мбайт (9%)
Заголовок : Original@DD5.1 AC3 ,640 Kbps, 48.0 KHz, 6 ch
Язык : English
Default : Нет
Forced : Нет

Текст #1
Идентификатор : 2
Формат : UTF-8
Идентификатор кодека : S_TEXT/UTF8
Идентификатор кодека/Информация : UTF-8 Plain Text
Продолжительность : 1 ч. 5 м.
Битрейт : 72 бит/сек
Count of elements : 699
Размер потока : 34,6 Кбайт (0%)
Заголовок : Russian (Amedia)
Язык : Russian
Default : Нет
Forced : Нет

Текст #2
Идентификатор : 3
Формат : UTF-8
Идентификатор кодека : S_TEXT/UTF8
Идентификатор кодека/Информация : UTF-8 Plain Text
Продолжительность : 1 ч. 7 м.
Битрейт : 56 бит/сек
Count of elements : 885
Размер потока : 27,9 Кбайт (0%)
Заголовок : Original
Язык : English
Default : Нет
Forced : Нет










Год выпуска: 1973
Выпущено: США , , Metro-Goldwyn-Mayer
Жанр: Фантастика, триллер, вестерн
Продолжительность: 01:25:07

Озвучка 1: Профессиональный многоголосый - 5канал РОССИЯ Русский

Озвучка 2: Алексей Михалёв Авторский Русский

Озвучка 2: Профессиональный многоголосый -English- Английский - Оригинал

Субтитры: Русские, английские


MDB

Режиссер: Майкл Крайтон

В ролях: Юл Бриннер, Ричард Бенджамин, Джеймс Бролин, Норман Бартолд, Алан Оппенхаймер, Дик Ван Паттен, Линда Гайе Скотт, Стив Франкен, Терри Уилсон, Виктория Шоу, Мэджел Барретт, Энн Беллами, Чарлз Сил, Вэйд Кросби, Майкл Т. Миклер, Нора Марлоу, Орвилл Шерман, Лоурен Гилберт


Западный Мир — это один из трех гигантских тематических парков, построенных на остатках американской природы. Есть еще Римский мир и Мир средних веков. За 1000 долларов в день туристы могут развлекаться в меру своих потребностей и аппетитов.

Роботов, населяющих эти парки развлечений, можно насиловать, убивать, любить, расстреливать, рубить мечом. С ними можно даже подружиться. Они никогда не дают сдачи и не испытывают эмоций.

Но вдруг в отлаженном механизме аттракциона что-то разлаживается. Компьютерная неполадка распространяется как чума. Роботы начинают восстание…


Качество :Blu-Ray Remux 1080p
Формат: MKV
Видео кодек: H264
Видео: 18,2Мбит/сек,1920х1080(16.9),в 25.000кадр/сек,AVC (NTSC)(High@L4,1)(CABAC/3 Ref Frames)
Аудио Кодек:AC3

Аудио #1:AC3 , 384 Kbps, 48.0 KHz, 6 ch- -5канал РОССИЯ Русский

Аудио #2:AC3 , 384 Kbps, 48.0 KHz, 6 ch- -Алексей Михалёв Авторский Русский


Аудио #3: AC3, 640 Kbps, 48.0 KHz,6 ch - - English-Английский -Оригинал


Общее
Уникальный идентификатор : 200647230266652687931683317887471435750 (0x96F3403B2BFE2A318C13AF145B73BFE6)
Полное имя : C:\ПИРАТИЯ(PIRATIYA)\МИР ДИКОГО ЗАПАДА(WESTWORLD)\WESTWORLD_2016_S01_RUS_DUB_Kravec_Eng_DD5.1_N.B_HDTV_1080p+Bonys\WESTWORLD_1973_2xRus_Eng_H264_DD5.1_N.B_Blu-Ray_Remux_1080p.mkv
Формат : Matroska
Версия формата : Version 4 / Version 2
Размер файла : 11,6 Гбайт
Продолжительность : 1 ч. 25 м.
Режим общего битрейта : Переменный
Общий поток : 19,6 Мбит/сек
Название фильма : WESTWORLD_1973_2xRus_Eng_H264_DD5.1_N.B_Blu-Ray_Remux_1080p
Дата кодирования : UTC 2016-11-29 11:45:03
Программа кодирования : mkvmerge v9.5.0 ('Quiet Fire') 64bit
Библиотека кодирования : libebml v1.3.4 + libmatroska v1.4.5

Видео
Идентификатор : 1
Формат : AVC
Формат/Информация : Advanced Video Codec
Профиль формата : High@L4.1
Параметр CABAC формата : Да
Параметр ReFrames формата : 3 кадра
Идентификатор кодека : V_MPEG4/ISO/AVC
Продолжительность : 1 ч. 25 м.
Вид битрейта : Переменный
Битрейт : 18,2 Мбит/сек
Максимальный битрейт : 35,0 Мбит/сек
Ширина : 1920 пикселей
Высота : 1080 пикселей
Соотношение сторон : 16:9
Режим частоты кадров : Переменный
Частота кадров : 50,000 кадров/сек
Частота кадров в оригинале : 25,000 кадров/сек
Стандарт вещания : NTSC
Цветовое пространство : YUV
Субдискретизация насыщенности : 4:2:0
Битовая глубина : 8 бит
Тип развёртки : Чересстрочная
Метод сохранения типа развёртки : Раздельные поля
Порядок развёртки : Верхнее поле первое
Бит/(Пиксели*Кадры) : 0.175
Размер потока : 10,8 Гбайт (93%)
Заголовок : WESTWORLD_1973_2xRus_Eng_H264_DD5.1_N.B_Blu-Ray_Remux_1080p
Язык : Russian
Default : Да
Forced : Нет
Цветовой диапазон : Limited
Основные цвета : BT.709
Характеристики трансфера : BT.709
Коэффициенты матрицы : BT.709

Аудио #1
Идентификатор : 5
Формат : AC-3
Формат/Информация : Audio Coding 3
Расширение режима : CM (complete main)
Параметр Endianness формата : Big
Идентификатор кодека : A_AC3
Продолжительность : 1 ч. 25 м.
Вид битрейта : Постоянный
Битрейт : 384 Кбит/сек
Каналы : 6 каналов
Расположение каналов : Front: L C R, Side: L R, LFE
Частота : 48,0 КГц
Частота кадров : 31,250 кадров/сек (1536 spf)
Битовая глубина : 16 бит
Метод сжатия : С потерями
Размер потока : 234 Мбайт (2%)
Заголовок : MVO 5canal Russia @DD5.1 AC3, 384 Kbps, 48.0 KHz, 6 ch
Язык : Russian
Default : Да
Forced : Нет

Аудио #2
Идентификатор : 6
Формат : AC-3
Формат/Информация : Audio Coding 3
Расширение режима : CM (complete main)
Параметр Endianness формата : Big
Идентификатор кодека : A_AC3
Продолжительность : 1 ч. 25 м.
Вид битрейта : Постоянный
Битрейт : 384 Кбит/сек
Каналы : 6 каналов
Расположение каналов : Front: L C R, Side: L R, LFE
Частота : 48,0 КГц
Частота кадров : 31,250 кадров/сек (1536 spf)
Битовая глубина : 16 бит
Метод сжатия : С потерями
Размер потока : 234 Мбайт (2%)
Заголовок : MVO Алексей Михалёв @DD5.1 AC3, 384 Kbps, 48.0 KHz, 6 ch
Язык : Russian
Default : Нет
Forced : Нет

Аудио #3
Идентификатор : 7
Формат : AC-3
Формат/Информация : Audio Coding 3
Расширение режима : CM (complete main)
Параметр Endianness формата : Big
Идентификатор кодека : A_AC3
Продолжительность : 1 ч. 25 м.
Вид битрейта : Постоянный
Битрейт : 640 Кбит/сек
Каналы : 6 каналов
Расположение каналов : Front: L C R, Side: L R, LFE
Частота : 48,0 КГц
Частота кадров : 31,250 кадров/сек (1536 spf)
Битовая глубина : 16 бит
Метод сжатия : С потерями
Размер потока : 390 Мбайт (3%)
Заголовок : Original@DD5.1 AC3 ,640 Kbps, 48.0 KHz, 6 ch
Язык : English
Default : Нет
Forced : Нет

Текст #1
Идентификатор : 2
Формат : PGS
Режим смешивания : zlib
Идентификатор кодека : S_HDMV/PGS
Идентификатор кодека/Информация : Picture based subtitle format used on BDs/HD-DVDs
Продолжительность : 1 ч. 23 м.
Битрейт : 4148 бит/сек
Count of elements : 1236
Размер потока : 2,46 Мбайт (0%)
Заголовок : Russian Forsed
Язык : Russian
Default : Да
Forced : Нет

Текст #2
Идентификатор : 3
Формат : UTF-8
Идентификатор кодека : S_TEXT/UTF8
Идентификатор кодека/Информация : UTF-8 Plain Text
Продолжительность : 1 ч. 23 м.
Битрейт : 59 бит/сек
Count of elements : 612
Размер потока : 36,3 Кбайт (0%)
Заголовок : Rus
Язык : Russian
Default : Нет
Forced : Нет

Текст #3
Идентификатор : 4
Формат : UTF-8
Идентификатор кодека : S_TEXT/UTF8
Идентификатор кодека/Информация : UTF-8 Plain Text
Продолжительность : 1 ч. 23 м.
Битрейт : 34 бит/сек
Count of elements : 618
Размер потока : 20,8 Кбайт (0%)
Заголовок : Original
Язык : English
Default : Нет
Forced : Нет









1. Открыть торрент
2. Снять галки с тех файлов торрента, которые мы не хотим закачивать. Оставляем только на нужных нам файлах (файле).
3. Нажать О.К.

В клиенте utorrent

Инструкция

1) Открыть торрент


2) Снять галки с тех файлов торрента, которые мы не хотим закачивать:

* либо вручную, снимая с каждого файла галку( скрин №1)
* либо, нажав кнопку "Снять метки (Select None)", сняв сразу со всех файлов(скрин №2)
№1

№2

Оставляем только на нужных нам файлах (файле).

3)Нажать О.К






Внимание!!! 06.12. 2016. РАЗДАЧА ОБНОВЛЕНА. ФИНАЛ СЕЗОНА. ОБНОВИТЕ ТОРЕНТ ФАЙЛ.ПРИЯТНОГО ПРОСМОТРА .

Релиз от: Nikolai.Baranov & PIRATIYA










Скачать Мир.дикого.Запада.Westworld.+Bonys.(Сезон.1.Серия.1-10.из.10.).(Джонатан.Нолан.Джонни.Кэмпбелл.Ричард.Дж.Льюис).[2016.Фантастика.триллер.вестерн.HDTVRip.1080p.].[MVO].[Kravec.English.+.Subs.Rus.ENG].torrent без регистрации
Золото ЗОЛОТАЯ РАЗДАЧА! СКАЧАННОЕ НЕ ЗАСЧИТЫВАЕТСЯ! Золото
Дата: Зарегистрирован   [ Тип: внутренний ] Как тут cкачать?
MAGNET ссылка
MAGNET ссылка


Скачать .torrent

112 KB

Статус: проверено DHT
Скачан: торрент - 256 раз, раздача полностью - 10 раз
Размер: 41,91 GB
Оценка:  5 (Голосов: 1)
Поблагодарили: 4
Поделиться ссылкой на эту раздачу с друзьями:
В контактеFacebookОдноклассникиTwitterLivejournalМой МирLiveinternet
 

 

ungod

[] 

По-моему серьезный рассинхрон звука во 2 серии. Причем и в оригинальной дорожке...
 

ungod

[] 

Nikolai.Baranov
Может я раньше не замечал, но в 5 серии точно звук с дубляжом 2.0 вместо 5.1., оригинал пятиканальный, перевод -только два канала.
Свойства файла показывают, что звук 5.1, однако это не так.
 
Показать сообщения:    


Вы не можете начинать темы
Вы не можете отвечать на сообщения
Вы не можете редактировать свои сообщения
Вы не можете удалять свои сообщения
Вы не можете голосовать в опросах
Вы не можете прикреплять файлы к сообщениям
Вы можете скачивать файлы