Loading...
Error

Скачать Тень внутри / The Shadow Within (Сильвана Дзанколо) [2007, ужасы, триллер, DVDRip] [AVO (Сергей Визгунов)] торрент без регистрации

 
Статистика раздачи
Размер:  1,46 GB   |    Скачан:  11 раз
Сидов:  1  [  0 KB/s  ]  
 
Автор Сообщение

Marsianka

[] 

Информация о фильме
Название: Тень внутри
Оригинальное название: The Shadow Within
Год выхода: 2007
Жанр: ужасы, триллер
Режиссер: Сильвана Дзанколо
В ролях: Лоуренс Белчер, Хейли Дж Уильямс, Бет Уинслет, Род Халлетт, Бонни Амброзе, Белинда Питерс, Лэйси Бонд, Джорджия Митчелл, Питер Шеперд, Лионнелло Дженнеро

О фильме:
Морис Дюмон - мальчик, способный общаться с мёртвыми. Мари, его мать, попадает под влияние мадам Арман, которая убеждает её заставить своего сына быть посредником с потусторонним миром...



Производство: Италия / The Shadow Within Films, Pixeldna, Wee Dram Productions, Imageworks Entertainment International
Продолжительность: 01:30:18
Перевод: авторский одноголосый [Сергей Визгунов]

Файл
Качество: DVDRip
Формат: AVI
Видео: XviD, 720x400 (16:9), 29.970 fps, 1407 kbps, 0.163 bit/pixel
Аудио #1: русский, AC3 5.1, 48 kHz, 448 kbps
Аудио #2: английский, AC3 5.1, 48 kHz, 448 kbps
Формат : AVI
Формат/Информация : Audio Video Interleave
Размер файла : 1,46 Гбайт
Продолжительность : 1 ч. 30 м.
Общий поток : 2313 Кбит/сек
Программа кодирования : VirtualDubMod 1.5.4.1 (build 2178/release)
Библиотека кодирования : VirtualDubMod build 2178/release

Видео
Идентификатор : 0
Формат : MPEG-4 Visual
Профиль формата : Advanced Simple@L5
Параметр BVOP формата : 1
Параметр QPel формата : Нет
Параметр GMC формата : Без точки перехода
Параметр матрицы формата : Выборочная
Идентификатор кодека : XVID
Идентификатор кодека/Подсказка : XviD
Продолжительность : 1 ч. 30 м.
Битрейт : 1407 Кбит/сек
Ширина : 720 пикселей
Высота : 400 пикселей
Соотношение сторон : 16:9
Частота кадров : 29,970 кадров/сек
Цветовое пространство : YUV
Субдискретизация насыщенности : 4:2:0
Битовая глубина : 8 бит
Тип развёртки : Прогрессивная
Метод сжатия : С потерями
Бит/(Пиксели*Кадры) : 0.163
Размер потока : 909 Мбайт (61%)
Библиотека кодирования : XviD 64

Аудио #1
Идентификатор : 1
Формат : AC-3
Формат/Информация : Audio Coding 3
Расширение режима : CM (complete main)
Параметр Endianness формата : Big
Идентификатор кодека : 2000
Продолжительность : 1 ч. 30 м.
Вид битрейта : Постоянный
Битрейт : 448 Кбит/сек
Каналы : 6 каналов
Расположение каналов : Front: L C R, Side: L R, LFE
Частота : 48,0 КГц
Метод сжатия : С потерями
Размер потока : 289 Мбайт (19%)
Выравнивание : Разделение по промежуткам
Продолжительность промежутка : 96 мс. (2,88 видеокадра)
Время предзагрузки промежутка : 96 мс.
Язык : Russian

Аудио #2
Идентификатор : 2
Формат : AC-3
Формат/Информация : Audio Coding 3
Расширение режима : CM (complete main)
Параметр Endianness формата : Big
Идентификатор кодека : 2000
Продолжительность : 1 ч. 30 м.
Вид битрейта : Постоянный
Битрейт : 448 Кбит/сек
Каналы : 6 каналов
Расположение каналов : Front: L C R, Side: L R, LFE
Частота : 48,0 КГц
Метод сжатия : С потерями
Размер потока : 289 Мбайт (19%)
Выравнивание : Разделение по промежуткам
Продолжительность промежутка : 96 мс. (2,88 видеокадра)
Время предзагрузки промежутка : 96 мс.
Язык : English



Скачать Тень.внутри.The.Shadow.Within.(Сильвана.Дзанколо).[2007.ужасы.триллер.DVDRip].[AVO.(Сергей.Визгунов)].torrent без регистрации
Золото ЗОЛОТАЯ РАЗДАЧА! СКАЧАННОЕ НЕ ЗАСЧИТЫВАЕТСЯ! Золото
Дата: Зарегистрирован   [ Тип: внутренний ] Как тут cкачать?
MAGNET ссылка
MAGNET ссылка


Скачать .torrent

15 KB

Статус: проверено DHT
Скачан: торрент - 11 раз, раздача полностью - 23 раз
Размер: 1,46 GB
Оценка:  - (Голосов: 0)
Поблагодарили: 0
Поделиться ссылкой на эту раздачу с друзьями:
В контактеFacebookОдноклассникиTwitterLivejournalМой МирLiveinternet
 

 
Показать сообщения:    


Вы не можете начинать темы
Вы не можете отвечать на сообщения
Вы не можете редактировать свои сообщения
Вы не можете удалять свои сообщения
Вы не можете голосовать в опросах
Вы не можете прикреплять файлы к сообщениям
Вы можете скачивать файлы