Loading...
Error

Скачать Молодая Екатерина / Young Catherine (Майкл Андерсон) [1991, драма, биография, история, ..., DVDRip-AVC] [Dub]+[MVO]+[VO]+[Sub] торрент без регистрации

 
Статистика раздачи
Размер:  5,17 GB   |    Скачан:  1 раз
Сидов:  1  [  0 KB/s  ]  
 
Автор Сообщение

Marsianka

[] 

Название: Молодая Екатерина
Оригинальное название: Young Catherine
Год выхода: 1991

Страна: Великобритания, США, Канада, СССР, Германия, Италия
Студия: CTV Television Network, Consolidated Entertainment, Lenfilm Studio
Продолжительность: 01:34:01 + 01:33:10
Жанр: драма, биография, история, ...

Режиссер: Майкл Андерсон
В ролях: Джулия Ормонд, Ванесса Редгрейв, Кристофер Пламмер, Франко Неро, Марта Келлер, Максимилиан Шелл, Марк Франкель, Рис Динсдейл, Анна Канакис, Джон Шрэпнел, ...

О фильме: Действие картины начинается в 1744 году в маленьком германском княжестве, где мы знакомимся с будущей царицей Российской империи. Середина XVIII столетия. Роскошь и величие северной столицы, интриги, любовь и унижение — все это еще впереди. Через все это проходит юная прусская принцесса София, которую потомки будут называть Великой Екатериной…



Кодек: x264
Качество: DVDRip-AVC
Видео: 700x540, 2800 kbps, 23,976 fps

- Профессиональный (дублированный) Ленфильм
- Профессиональный (многоголосный, закадровый) с исходника DVD9
- Любительский (одноголосый, закадровый) ?
- Субтитры
Аудио #1: AC-3, 2 ch, 192 kbps (Rus) - Dub Ленфильм
Аудио #2: AC-3, 6 ch, 384 kbps (Rus) - MVO
Аудио #3: AC-3, 2 ch, 192 kbps (Rus) - VO
Аудио #4: AC-3, 6 ch, 384 kbps (Eng)
Субтитры: Русские

x264 [info]: frame I:911 Avg QP:16.08 size: 49896
x264 [info]: frame P:26584 Avg QP:18.45 size: 26121
x264 [info]: frame B:107759 Avg QP:20.44 size: 11455
x264 [info]: consecutive B-frames: 0.9% 1.1% 3.3% 19.2% 20.5% 45.6% 6.4% 1.5% 0.7% 0.5% 0.1% 0.1% 0.0%

Общее
Уникальный идентификатор : 253863241020785346817534844565749595285 (0xBEFC4821D2EE20359F36938DAAF17C95)
Полное имя : Молодая Екатерина (Young Catherine) E01 1991 DVDRip.mkv
Формат : Matroska
Версия формата : Version 2
Размер файла : 2,60 Гбайт
Продолжительность : 1 ч. 34 м.
Общий поток : 3954 Кбит/сек
Дата кодирования : UTC 2016-10-14 08:33:29
Программа кодирования : mkvmerge v4.0.0 ('The Stars were mine') сборка от Jun 6 2010 16:18:42
Библиотека кодирования : libebml v1.0.0 + libmatroska v1.0.0

Видео
Идентификатор : 1
Формат : AVC
Формат/Информация : Advanced Video Codec
Профиль формата : High@L4.1
Параметр CABAC формата : Да
Параметр ReFrames формата : 12 кадров
Идентификатор кодека : V_MPEG4/ISO/AVC
Продолжительность : 1 ч. 34 м.
Битрейт : 2800 Кбит/сек
Ширина : 700 пикселей
Высота : 540 пикселей
Соотношение сторон : 1,296
Режим частоты кадров : Постоянный
Частота кадров : 23,976 (24000/1001) кадра/сек
Цветовое пространство : YUV
Субдискретизация насыщенности : 4:2:0
Битовая глубина : 8 бит
Тип развёртки : Прогрессивная
Бит/(Пиксели*Кадры) : 0.309
Размер потока : 1,79 Гбайт (69%)
Библиотека кодирования : x264 core 146 r2538 121396c
Настройки программы : cabac=1 / ref=12 / deblock=1:-3:-3 / analyse=0x3:0x133 / me=umh / subme=11 / psy=1 / psy_rd=1.00:0.00 / mixed_ref=1 / me_range=32 / chroma_me=1 / trellis=2 / 8x8dct=1 / cqm=0 / deadzone=21,11 / fast_pskip=0 / chroma_qp_offset=-2 / threads=12 / lookahead_threads=2 / sliced_threads=0 / nr=0 / decimate=0 / interlaced=0 / bluray_compat=0 / constrained_intra=0 / bframes=12 / b_pyramid=2 / b_adapt=2 / b_bias=0 / direct=3 / weightb=1 / open_gop=0 / weightp=2 / keyint=240 / keyint_min=23 / scenecut=40 / intra_refresh=0 / rc=2pass / mbtree=0 / bitrate=2800 / ratetol=1.0 / qcomp=0.60 / qpmin=0 / qpmax=69 / qpstep=4 / cplxblur=20.0 / qblur=0.5 / ip_ratio=1.40 / pb_ratio=1.30 / aq=1:0.80
Язык : English
Default : Нет
Forced : Нет

Аудио #1
Идентификатор : 2
Формат : AC-3
Формат/Информация : Audio Coding 3
Расширение режима : CM (complete main)
Параметр Endianness формата : Big
Идентификатор кодека : A_AC3
Продолжительность : 1 ч. 34 м.
Вид битрейта : Постоянный
Битрейт : 192 Кбит/сек
Каналы : 2 канала
Расположение каналов : Front: L R
Частота : 48,0 КГц
Частота кадров : 31,250 кадров/сек (1536 spf)
Метод сжатия : С потерями
Размер потока : 129 Мбайт (5%)
Заголовок : Dub Ленфильм
Язык : Russian
Default : Нет
Forced : Нет

Аудио #2
Идентификатор : 3
Формат : AC-3
Формат/Информация : Audio Coding 3
Расширение режима : CM (complete main)
Параметр Endianness формата : Big
Идентификатор кодека : A_AC3
Продолжительность : 1 ч. 34 м.
Вид битрейта : Постоянный
Битрейт : 384 Кбит/сек
Каналы : 6 каналов
Расположение каналов : Front: L C R, Side: L R, LFE
Частота : 48,0 КГц
Частота кадров : 31,250 кадров/сек (1536 spf)
Метод сжатия : С потерями
Размер потока : 258 Мбайт (10%)
Заголовок : MVO
Язык : Russian
Default : Нет
Forced : Нет

Аудио #3
Идентификатор : 4
Формат : AC-3
Формат/Информация : Audio Coding 3
Расширение режима : CM (complete main)
Параметр Endianness формата : Big
Идентификатор кодека : A_AC3
Продолжительность : 1 ч. 34 м.
Вид битрейта : Постоянный
Битрейт : 192 Кбит/сек
Каналы : 2 канала
Расположение каналов : Front: L R
Частота : 48,0 КГц
Частота кадров : 31,250 кадров/сек (1536 spf)
Метод сжатия : С потерями
Размер потока : 129 Мбайт (5%)
Заголовок : VO
Язык : Russian
Default : Нет
Forced : Нет

Аудио #4
Идентификатор : 5
Формат : AC-3
Формат/Информация : Audio Coding 3
Расширение режима : CM (complete main)
Параметр Endianness формата : Big
Идентификатор кодека : A_AC3
Продолжительность : 1 ч. 34 м.
Вид битрейта : Постоянный
Битрейт : 384 Кбит/сек
Каналы : 6 каналов
Расположение каналов : Front: L C R, Side: L R, LFE
Частота : 48,0 КГц
Частота кадров : 31,250 кадров/сек (1536 spf)
Метод сжатия : С потерями
Размер потока : 258 Мбайт (10%)
Язык : English
Default : Нет
Forced : Нет

Текст
Идентификатор : 6
Формат : UTF-8
Идентификатор кодека : S_TEXT/UTF8
Идентификатор кодека/Информация : UTF-8 Plain Text
Язык : Russian
Default : Нет
Forced : Нет

-----------------------------------------------------------------------------------

x264 [info]: frame I:865 Avg QP:15.84 size: 55478
x264 [info]: frame P:25660 Avg QP:18.27 size: 26613
x264 [info]: frame B:107515 Avg QP:20.31 size: 11400
x264 [info]: consecutive B-frames: 0.9% 0.9% 3.0% 15.9% 19.4% 47.2% 8.5% 2.4% 1.1% 0.4% 0.2% 0.2% 0.0%

Общее
Уникальный идентификатор : 194496951998883403026252198226244069827 (0x9252C019DD75319A9C3E9D76514AE9C3)
Полное имя : Молодая Екатерина (Young Catherine) E02 1991 DVDRip.mkv
Формат : Matroska
Версия формата : Version 2
Размер файла : 2,57 Гбайт
Продолжительность : 1 ч. 33 м.
Общий поток : 3954 Кбит/сек
Дата кодирования : UTC 2016-10-14 12:12:13
Программа кодирования : mkvmerge v4.0.0 ('The Stars were mine') сборка от Jun 6 2010 16:18:42
Библиотека кодирования : libebml v1.0.0 + libmatroska v1.0.0

Видео
Идентификатор : 1
Формат : AVC
Формат/Информация : Advanced Video Codec
Профиль формата : High@L4.1
Параметр CABAC формата : Да
Параметр ReFrames формата : 12 кадров
Идентификатор кодека : V_MPEG4/ISO/AVC
Продолжительность : 1 ч. 33 м.
Битрейт : 2800 Кбит/сек
Ширина : 700 пикселей
Высота : 540 пикселей
Соотношение сторон : 1,296
Режим частоты кадров : Постоянный
Частота кадров : 23,976 (24000/1001) кадра/сек
Цветовое пространство : YUV
Субдискретизация насыщенности : 4:2:0
Битовая глубина : 8 бит
Тип развёртки : Прогрессивная
Бит/(Пиксели*Кадры) : 0.309
Размер потока : 1,77 Гбайт (69%)
Библиотека кодирования : x264 core 146 r2538 121396c
Настройки программы : cabac=1 / ref=12 / deblock=1:-3:-3 / analyse=0x3:0x133 / me=umh / subme=11 / psy=1 / psy_rd=1.00:0.00 / mixed_ref=1 / me_range=32 / chroma_me=1 / trellis=2 / 8x8dct=1 / cqm=0 / deadzone=21,11 / fast_pskip=0 / chroma_qp_offset=-2 / threads=12 / lookahead_threads=2 / sliced_threads=0 / nr=0 / decimate=0 / interlaced=0 / bluray_compat=0 / constrained_intra=0 / bframes=12 / b_pyramid=2 / b_adapt=2 / b_bias=0 / direct=3 / weightb=1 / open_gop=0 / weightp=2 / keyint=240 / keyint_min=23 / scenecut=40 / intra_refresh=0 / rc=2pass / mbtree=0 / bitrate=2800 / ratetol=1.0 / qcomp=0.60 / qpmin=0 / qpmax=69 / qpstep=4 / cplxblur=20.0 / qblur=0.5 / ip_ratio=1.40 / pb_ratio=1.30 / aq=1:0.80
Язык : English
Default : Нет
Forced : Нет

Аудио #1
Идентификатор : 2
Формат : AC-3
Формат/Информация : Audio Coding 3
Расширение режима : CM (complete main)
Параметр Endianness формата : Big
Идентификатор кодека : A_AC3
Продолжительность : 1 ч. 33 м.
Вид битрейта : Постоянный
Битрейт : 192 Кбит/сек
Каналы : 2 канала
Расположение каналов : Front: L R
Частота : 48,0 КГц
Частота кадров : 31,250 кадров/сек (1536 spf)
Метод сжатия : С потерями
Размер потока : 128 Мбайт (5%)
Заголовок : Dub Ленфильм
Язык : Russian
Default : Нет
Forced : Нет

Аудио #2
Идентификатор : 3
Формат : AC-3
Формат/Информация : Audio Coding 3
Расширение режима : CM (complete main)
Параметр Endianness формата : Big
Идентификатор кодека : A_AC3
Продолжительность : 1 ч. 33 м.
Вид битрейта : Постоянный
Битрейт : 384 Кбит/сек
Каналы : 6 каналов
Расположение каналов : Front: L C R, Side: L R, LFE
Частота : 48,0 КГц
Частота кадров : 31,250 кадров/сек (1536 spf)
Метод сжатия : С потерями
Размер потока : 256 Мбайт (10%)
Заголовок : MVO
Язык : Russian
Default : Нет
Forced : Нет

Аудио #3
Идентификатор : 4
Формат : AC-3
Формат/Информация : Audio Coding 3
Расширение режима : CM (complete main)
Параметр Endianness формата : Big
Идентификатор кодека : A_AC3
Продолжительность : 1 ч. 33 м.
Вид битрейта : Постоянный
Битрейт : 192 Кбит/сек
Каналы : 2 канала
Расположение каналов : Front: L R
Частота : 48,0 КГц
Частота кадров : 31,250 кадров/сек (1536 spf)
Метод сжатия : С потерями
Размер потока : 128 Мбайт (5%)
Заголовок : VO
Язык : Russian
Default : Нет
Forced : Нет

Аудио #4
Идентификатор : 5
Формат : AC-3
Формат/Информация : Audio Coding 3
Расширение режима : CM (complete main)
Параметр Endianness формата : Big
Идентификатор кодека : A_AC3
Продолжительность : 1 ч. 33 м.
Вид битрейта : Постоянный
Битрейт : 384 Кбит/сек
Каналы : 6 каналов
Расположение каналов : Front: L C R, Side: L R, LFE
Частота : 48,0 КГц
Частота кадров : 31,250 кадров/сек (1536 spf)
Метод сжатия : С потерями
Размер потока : 256 Мбайт (10%)
Язык : English
Default : Нет
Forced : Нет

Текст
Идентификатор : 6
Формат : UTF-8
Идентификатор кодека : S_TEXT/UTF8
Идентификатор кодека/Информация : UTF-8 Plain Text
Язык : Russian
Default : Нет
Forced : Нет



Скачать Молодая.Екатерина.Young.Catherine.(Майкл.Андерсон).[1991.драма.биография.история.DVDRip-AVC].[Dub]+[MVO]+[VO]+[Sub].torrent без регистрации
Золото ЗОЛОТАЯ РАЗДАЧА! СКАЧАННОЕ НЕ ЗАСЧИТЫВАЕТСЯ! Золото
Дата: Зарегистрирован   [ Тип: внутренний ] Как тут cкачать?
MAGNET ссылка
MAGNET ссылка


Скачать .torrent

27 KB

Статус: проверено DHT
Скачан: торрент - 1 раз, раздача полностью - 0 раз
Размер: 5,17 GB
Оценка:  - (Голосов: 0)
Поблагодарили: 1
Поделиться ссылкой на эту раздачу с друзьями:
В контактеFacebookОдноклассникиTwitterLivejournalМой МирLiveinternet
 

 
Показать сообщения:    


Вы не можете начинать темы
Вы не можете отвечать на сообщения
Вы не можете редактировать свои сообщения
Вы не можете удалять свои сообщения
Вы не можете голосовать в опросах
Вы не можете прикреплять файлы к сообщениям
Вы можете скачивать файлы