Loading...
Error

Скачать Освобожденный ангел / Angel Unchained (Ли Мэдден) [1970, боевик, драма, DVDRip-AVC] [DVO]+[Sub]x3 торрент без регистрации

 
Статистика раздачи
Размер:  1,61 GB   |    Скачан:  3 раза
Сидов:  1  [  0 KB/s  ]  
 
Автор Сообщение

Marsianka

[] 

Информация о фильме
Название: Освобожденный ангел
Оригинальное название: Angel Unchained
Год выхода: 1970
Жанр: боевик, драма
Режиссер: Ли Мэдден / Li Medden
В ролях: Дон Страуд, Люк Аскью, Ларри Бишоп, Тайн Дэйли, Нил Моран, Jean Marie Ingels, Билл МакКинни, Джордан Родс, Питер Лоуренс

О фильме:
Ангел — байкер, который решил присоединиться к коммуне хиппи недалеко от маленького города. После того, как на них напали городские хулиганы, Ангел призывает на помощь своих друзей-байкеров, чтобы отомстить нападавшим.


Страна: США
Студия: American International Pictures (AIP)
Продолжительность: 01:26:33.522
Перевод: Профессиональный (двухголосый, закадровый) MGMHD/НТВ+

Файл
Кодек: h.264
Качество: DVDRip-AVC Исходник R1 MGM
Видео: 712x464 (16:9) @ 844x464, 23.976 fps, AVC, ~2314 Kbps, 0.292 bits/pixel

Русский, 48.0 KHz, AC3, 2 ch, 160 Kbps
Английский, 48.0 KHz, AC3, 2 ch, 192 Kbps
Субтитры:
Английские, VobSub
Французские, VobSub
Испанские, VobSub
Общее
Уникальный идентификатор : 221276174937587897432932044825818181756 (0xA6783DBAA448DE09815AEBED1002307C)
Полное имя : I:FilmsOsvobozhdenniy_angel.1970.DVDRip-AVC.mkv
Формат : Matroska
Версия формата : Version 4 / Version 2
Размер файла : 1,61 Гбайт
Продолжительность : 1 ч. 26 м.
Общий поток : 2671 Кбит/сек
Дата кодирования : UTC 2016-02-05 21:07:56
Программа кодирования : mkvmerge v8.8.0 ('Wind at my back') 64bit
Библиотека кодирования : libebml v1.3.3 + libmatroska v1.4.4

Видео
Идентификатор : 1
Формат : AVC
Формат/Информация : Advanced Video Codec
Профиль формата : High@L4.1
Параметр CABAC формата : Да
Параметр ReFrames формата : 11 кадров
Идентификатор кодека : V_MPEG4/ISO/AVC
Продолжительность : 1 ч. 26 м.
Битрейт : 2314 Кбит/сек
Ширина : 712 пикселей
Высота : 464 пикселя
Соотношение сторон : 16:9
Соотношение сторон в оригинале : 16:9
Режим частоты кадров : Постоянный
Частота кадров : 23,976 (24000/1001) кадра/сек
Цветовое пространство : YUV
Субдискретизация насыщенности : 4:2:0
Битовая глубина : 8 бит
Тип развёртки : Прогрессивная
Бит/(Пиксели*Кадры) : 0.292
Размер потока : 1,40 Гбайт (87%)
Библиотека кодирования : x264 core 148 r2638 7599210
Настройки программы : cabac=1 / ref=11 / deblock=1:0:0 / analyse=0x3:0x133 / me=umh / subme=11 / psy=1 / psy_rd=1.10:0.15 / mixed_ref=1 / me_range=48 / chroma_me=1 / trellis=2 / 8x8dct=1 / cqm=0 / deadzone=21,11 / fast_pskip=0 / chroma_qp_offset=-3 / threads=8 / lookahead_threads=1 / sliced_threads=0 / nr=0 / decimate=0 / interlaced=0 / bluray_compat=0 / constrained_intra=0 / bframes=8 / b_pyramid=2 / b_adapt=2 / b_bias=0 / direct=3 / weightb=1 / open_gop=0 / weightp=2 / keyint=240 / keyint_min=23 / scenecut=40 / intra_refresh=0 / rc_lookahead=60 / rc=2pass / mbtree=0 / bitrate=2314 / ratetol=1.0 / qcomp=0.60 / qpmin=0 / qpmax=69 / qpstep=4 / cplxblur=20.0 / qblur=0.5 / vbv_maxrate=40000 / vbv_bufsize=50000 / nal_hrd=none / filler=0 / ip_ratio=1.40 / pb_ratio=1.30 / aq=1:1.00
Default : Нет
Forced : Нет
Цветовой диапазон : Limited
Коэффициенты матрицы : BT.601

Аудио #1
Идентификатор : 2
Формат : AC-3
Формат/Информация : Audio Coding 3
Расширение режима : CM (complete main)
Параметр Endianness формата : Big
Идентификатор кодека : A_AC3
Продолжительность : 1 ч. 26 м.
Вид битрейта : Постоянный
Битрейт : 160 Кбит/сек
Каналы : 2 канала
Расположение каналов : Front: L R
Частота : 48,0 КГц
Частота кадров : 31,250 кадров/сек (1536 spf)
Метод сжатия : С потерями
Размер потока : 99,1 Мбайт (6%)
Язык : Russian
Default : Да
Forced : Нет

Аудио #2
Идентификатор : 3
Формат : AC-3
Формат/Информация : Audio Coding 3
Расширение режима : CM (complete main)
Параметр Endianness формата : Big
Идентификатор кодека : A_AC3
Продолжительность : 1 ч. 26 м.
Вид битрейта : Постоянный
Битрейт : 192 Кбит/сек
Каналы : 2 канала
Расположение каналов : Front: L R
Частота : 48,0 КГц
Частота кадров : 31,250 кадров/сек (1536 spf)
Метод сжатия : С потерями
Размер потока : 119 Мбайт (7%)
Язык : English
Default : Нет
Forced : Нет

Текст #1
Идентификатор : 4
Формат : VobSub
Режим смешивания : zlib
Идентификатор кодека : S_VOBSUB
Идентификатор кодека/Информация : Picture based subtitle format used on DVDs
Продолжительность : 1 ч. 23 м.
Битрейт : 1158 бит/сек
Count of elements : 655
Размер потока : 708 Кбайт (0%)
Язык : English
Default : Нет
Forced : Нет

Текст #2
Идентификатор : 5
Формат : VobSub
Режим смешивания : zlib
Идентификатор кодека : S_VOBSUB
Идентификатор кодека/Информация : Picture based subtitle format used on DVDs
Продолжительность : 1 ч. 23 м.
Битрейт : 1091 бит/сек
Count of elements : 650
Размер потока : 667 Кбайт (0%)
Язык : French
Default : Нет
Forced : Нет

Текст #3
Идентификатор : 6
Формат : VobSub
Режим смешивания : zlib
Идентификатор кодека : S_VOBSUB
Идентификатор кодека/Информация : Picture based subtitle format used on DVDs
Продолжительность : 1 ч. 23 м.
Битрейт : 1147 бит/сек
Count of elements : 650
Размер потока : 701 Кбайт (0%)
Язык : Spanish
Default : Нет
Forced : Нет

Меню
00:00:00.000 : en:Chapter 01
00:05:47.334 : en:Chapter 02
00:09:10.534 : en:Chapter 03
00:12:31.335 : en:Chapter 04
00:18:41.102 : en:Chapter 05
00:22:27.769 : en:Chapter 06
00:30:25.503 : en:Chapter 07
00:35:41.170 : en:Chapter 08
00:40:48.971 : en:Chapter 09
00:48:28.371 : en:Chapter 10
00:53:56.905 : en:Chapter 11
00:56:58.572 : en:Chapter 12
01:00:17.872 : en:Chapter 13
01:07:48.573 : en:Chapter 14
01:09:49.840 : en:Chapter 15
01:18:12.741 : en:Chapter 16
frame I:819 Avg QP:17.24 size: 63833
frame P:29162 Avg QP:19.73 size: 24844
frame B:94539 Avg QP:21.27 size: 7672
Релиз от: Temperest



Скачать Освобожденный.ангел.Angel.Unchained.(Ли.Мэдден).[1970.боевик.драма.DVDRip-AVC].[DVO]+[Sub]x3.torrent без регистрации
Золото ЗОЛОТАЯ РАЗДАЧА! СКАЧАННОЕ НЕ ЗАСЧИТЫВАЕТСЯ! Золото
Дата: Зарегистрирован   [ Тип: внутренний ] Как тут cкачать?
MAGNET ссылка
MAGNET ссылка


Скачать .torrent

17 KB

Статус: проверено DHT
Скачан: торрент - 3 раз, раздача полностью - 1 раз
Размер: 1,61 GB
Оценка:  - (Голосов: 0)
Поблагодарили: 1
Поделиться ссылкой на эту раздачу с друзьями:
В контактеFacebookОдноклассникиTwitterLivejournalМой МирLiveinternet
 

 
Показать сообщения:    


Вы не можете начинать темы
Вы не можете отвечать на сообщения
Вы не можете редактировать свои сообщения
Вы не можете удалять свои сообщения
Вы не можете голосовать в опросах
Вы не можете прикреплять файлы к сообщениям
Вы можете скачивать файлы