Loading...
Error

Скачать Коллекция / The Collection (01x01-03 из 08) (Дэн Зефф, Дирбла Уолш) [2016, драма, мелодрама, история, WEB-DLRip] [720p] [DVO (NEON Studio)] торрент без регистрации

 
Статистика раздачи
Размер:  3,66 GB   |    Скачан:  105 раз
Сидов:  1  [  0 KB/s  ]  
 
Автор Сообщение

МихаНЕзатор

[] 

Название: Коллекция
Оригинальное название: The Collection
Год выхода: 2016
Жанр: драма, мелодрама, история
Режиссер: Дэн Зефф, Дирбла Уолш

В ролях: Ричард Койл, Том Райли, Мэми Гаммер, Фрэнсис де ла Тур, Дженна Тиам, Макс Дикон, Аликс Пуасон, Александр Брассе, Ирен Жакоб, Поппи Корби-Туч др.

Описание сериала: Отправляемся в конец первой половины двадцатого века. Война завершилась два года назад. В центре внимания оказывается парижский дом мод, который пытается восстановиться после унизительной фашистской оккупации. Теперь Франция решила тоже завоевать мир, но не насильственным способом, а путем красоты и обаяния. Мало кто может думать в такие годы о дизайне и моде, однако французские модельеры и красивые девушки готовы показать всему миру, что, несмотря на все беды и страдания, в мире все еще есть место для настоящей природной красоты, которую никакая война не сможет нарушить и уничтожить.

Страна: Великобритания
Продолжительность: ~00:55:00
Перевод: Любительский (двухголосый) NEON Studio
Субтитры: Отсутствуют

Релиз группа:

Файл
Формат: MKV
Качество: WEB-DLRip (720p)
Видео: MPEG-4 AVC, ~ 3000 Кбит/с, 1280x720
Аудио: 48 kHz, AC3 Dolby Digital, 2/0 (L,R) ch, ~192 kbps

АНОНСЫ ПОПУЛЯРНЫХ РАЗДАЧ
Формат : Matroska
Версия формата : Version 2
Размер файла : 1,30 Гбайт
Продолжительность : 58 м.
Общий поток : 3175 Кбит/сек
Дата кодирования : UTC 2016-09-03 23:51:20
Программа кодирования : mkvmerge v4.9.1 ('Ich will') сборка от Jul 11 2011 23:53:15
Библиотека кодирования : libebml v1.2.1 + libmatroska v1.1.1

Видео
Идентификатор : 1
Формат : AVC
Формат/Информация : Advanced Video Codec
Профиль формата : Main@L5.1
Параметр CABAC формата : Да
Параметр ReFrames формата : 1 кадр
Режим смешивания : Header stripping
Идентификатор кодека : V_MPEG4/ISO/AVC
Продолжительность : 58 м.
Битрейт : 2920 Кбит/сек
Ширина : 1280 пикселей
Высота : 720 пикселей
Соотношение сторон : 16:9
Режим частоты кадров : Постоянный
Частота кадров : 25,000 кадров/сек
Цветовое пространство : YUV
Субдискретизация насыщенности : 4:2:0
Битовая глубина : 8 бит
Тип развёртки : Прогрессивная
Бит/(Пиксели*Кадры) : 0.127
Размер потока : 1,20 Гбайт (92%)
Default : Да
Forced : Нет

Аудио
Идентификатор : 2
Формат : AC-3
Формат/Информация : Audio Coding 3
Расширение режима : CM (complete main)
Параметр Endianness формата : Big
Режим смешивания : Header stripping
Идентификатор кодека : A_AC3
Продолжительность : 58 м.
Вид битрейта : Постоянный
Битрейт : 192 Кбит/сек
Каналы : 2 канала
Расположение каналов : Front: L R
Частота : 48,0 КГц
Частота кадров : 31,250 кадров/сек (1536 spf)
Метод сжатия : С потерями
Размер потока : 80,7 Мбайт (6%)
Default : Да
Forced : Нет
Внимание! Раздача ведётся путём добавления новых серий; при каждом добавлении создаётся новый торрент. Чтобы начать докачку новой серии, пользователям необходимо сделать следующее:
(1) остановить скачивание,
(2) удалить старый торрент у себя из клиента (старые серии удалять не надо),
(3) скачать новый торрент и запустить его у себя в клиенте вместо старого, при этом указать клиенту путь в старую папку куда и должно происходить скачивание новых серий.

Ваш клиент при этом должен произвести хеширование (проверку) старой папки (если не производит сам - помогите ему сделать это), и будет докачивать только те серии которых у вас ещё нет. Старые серии при этом не удаляются, а продолжают раздаваться!

Eсли вы уже удалили старые серии, то предотвратить повторную закачку старых серий можно, отжав галочку в соответсвующих местах при запуске нового торрента. По возможности, желательно не удалять старые серии как можно дольше чтобы релизёр не столько продолжал раздавать старые серии, а смог сконцентрироваться на новых.



Скачать Коллекция.The.Collection.(01x01-03.из.08).(Дэн.Зефф.Дирбла.Уолш).[2016.драма.мелодрама.история.WEB-DLRip].[720p].[DVO.(NEON.Studio)].torrent без регистрации
Золото ЗОЛОТАЯ РАЗДАЧА! СКАЧАННОЕ НЕ ЗАСЧИТЫВАЕТСЯ! Золото
Дата: Зарегистрирован   [ Тип: внутренний ] Как тут cкачать?
MAGNET ссылка
MAGNET ссылка


Скачать .torrent

19 KB

Статус: проверено DHT
Скачан: торрент - 105 раз, раздача полностью - 15 раз
Размер: 3,66 GB
Оценка:  - (Голосов: 0)
Поблагодарили: 0
Поделиться ссылкой на эту раздачу с друзьями:
В контактеFacebookОдноклассникиTwitterLivejournalМой МирLiveinternet
 

 
Показать сообщения:    


Вы не можете начинать темы
Вы не можете отвечать на сообщения
Вы не можете редактировать свои сообщения
Вы не можете удалять свои сообщения
Вы не можете голосовать в опросах
Вы не можете прикреплять файлы к сообщениям
Вы можете скачивать файлы