Loading...
Error

Скачать Радиоволна / Frequency (Сезон 01, серии 01-08 из 10) (Брэд Андерсон, Джон Т. Кречмер) [2016, фантастика, триллер, драма, WEB-DLRip] [MVO] (AlexFilm) торрент без регистрации

 
Статистика раздачи
Размер:  4 GB   |    Скачан:  28 раз
Сидов:  1  [  0 KB/s  ]  
 
Автор Сообщение

leon030982

[] 


Радиоволна / Frequency


Год выпуска: 2016
Страна: США
Жанр: фантастика, триллер, драма, детектив
Продолжительность: ~00:42:00
Озвучание: Профессиональное (многоголосое закадровое) (AlexFilm)

Режиссеры: Брэд Андерсон, Джон Т. Кречмер, Нина Лопес-Коррадо

В ролях: Пейтон Лист, Дэниэл Бонжур, Девин Келли, Мекхай Файфер, Ленни Джейкобсон, Райли Смит, Александра Мец, Майкл Роман, Гаретт Баллок и др.

Описание: В основе сюжета сериала лежит история офицера полиции, которой однажды удалось установить связь с помощью радиоволн в своей машине с родным, давно ушедшим отцом. Он был, как и дочь, полицейским детективом, и погиб в 1996 году. Вместе они практикуют странный тандем, который занимается расследованием нераскрытых дел об убийстве. Однако, такая вневременная помощь и советы от потустороннего партнера приводят к усложнению привычной жизни детектива, внося в нее элементы беспорядка и путаницы.

Релиз:
Перевод: Елизавета Фэйм
Монтаж и сведение звука: Михаил Суслов
Роли озвучивали:Евгения Тихонова
Екатерина Муравицкая
Михаил Суслов
Владимир Курдов
Станислав Черсков

Сэмпл: http://sendfile.su/1272840


Качество: WEB-DLRip
Формат: AVI
Видео: 720x400 (1.80:1), 23.976 fps, XviD ~1400 kbps avg, 0.20 bit/pixel
Аудио Rus: 48 kHz, MPEG Layer 3, 2 ch, ~128.00 kbps avg
Аудио Eng: 48 kHz, MPEG Layer 3, 2 ch, ~128.00 kbps avg
Субтитры: нет

Торент обновлен! Добавлена 8-я серия
Формат : AVI
Формат/Информация : Audio Video Interleave
Размер файла : 514 Мбайт
Продолжительность : 42 м. 57 с.
Общий поток : 1673 Кбит/сек
Название фильма : Frequency 1x01 @ AlexFilm
Программа кодирования : VirtualDubMod 1.5.10.2 (build 2540/release)
Библиотека кодирования : VirtualDubMod build 2540/release
Видео
Идентификатор : 0
Формат : MPEG-4 Visual
Профиль формата : Advanced Simple@L5
Параметр BVOP формата : Нет
Параметр QPel формата : Нет
Параметр GMC формата : Без точки перехода
Параметр матрицы формата : Default (MPEG)
Идентификатор кодека : XVID
Идентификатор кодека/Подсказка : XviD
Продолжительность : 42 м. 57 с.
Битрейт : 1403 Кбит/сек
Ширина : 720 пикселей
Высота : 400 пикселей
Соотношение сторон : 16:9
Частота кадров : 23,976 (23976/1000) кадра/сек
Цветовое пространство : YUV
Субдискретизация насыщенности : 4:2:0
Битовая глубина : 8 бит
Тип развёртки : Прогрессивная
Метод сжатия : С потерями
Бит/(Пиксели*Кадры) : 0.203
Размер потока : 431 Мбайт (84%)
Библиотека кодирования : XviD 73
Аудио #1
Идентификатор : 1
Формат : MPEG Audio
Версия формата : Version 1
Профиль формата : Layer 3
Режим : Joint stereo
Расширение режима : MS Stereo
Идентификатор кодека : 55
Идентификатор кодека/Подсказка : MP3
Продолжительность : 42 м. 57 с.
Вид битрейта : Постоянный
Битрейт : 128 Кбит/сек
Каналы : 2 канала
Частота : 48,0 КГц
Метод сжатия : С потерями
Размер потока : 39,3 Мбайт (8%)
Выравнивание : Соединение по промежуткам
Продолжительность промежутка : 42 мс. (1,00 видеокадр)
Время предзагрузки промежутка : 504 мс.
Заголовок : Russian (AlexFilm)
Библиотека кодирования : LAME3.99r
Настройки программы : -m j -V 4 -q 3 -lowpass 18 -b 128
Аудио #2
Идентификатор : 2
Формат : MPEG Audio
Версия формата : Version 1
Профиль формата : Layer 3
Режим : Joint stereo
Расширение режима : MS Stereo
Идентификатор кодека : 55
Идентификатор кодека/Подсказка : MP3
Продолжительность : 42 м. 57 с.
Вид битрейта : Постоянный
Битрейт : 128 Кбит/сек
Каналы : 2 канала
Частота : 48,0 КГц
Метод сжатия : С потерями
Размер потока : 39,3 Мбайт (8%)
Выравнивание : Соединение по промежуткам
Продолжительность промежутка : 42 мс. (1,00 видеокадр)
Время предзагрузки промежутка : 504 мс.
Заголовок : English
Библиотека кодирования : LAME3.90.3
Внимание! Раздача ведётся путём добавления новых серий; при каждом добавлении создаётся новый торрент. Чтобы начать докачку новой серии, пользователям необходимо сделать следующее:
(1) остановить скачивание,
(2) удалить старый торрент у себя из клиента (старые серии удалять не надо),
(3) скачать новый торрент и запустить его у себя в клиенте вместо старого, при этом указать клиенту путь в старую папку куда и должно происходить скачивание новых серий.
Ваш клиент при этом должен произвести хеширование (проверку) старой папки (если не производит сам - помогите ему сделать это), и будет докачивать только те серии которых у вас ещё нет. Старые серии при этом не удаляются, а продолжают раздаваться!
Eсли вы уже удалили старые серии, то предотвратить повторную закачку старых серий можно, отжав галочку в соответствующих местах при запуске нового торрента. По возможности, желательно не удалять старые серии как можно дольше чтобы релизёр не столько продолжал раздавать старые серии, а смог сконцентрироваться на новых.



Скачать Радиоволна.Frequency.(Сезон.01.серии.01-08.из.10).(Брэд.Андерсон.Джон.Т.Кречмер).[2016.фантастика.триллер.драма.WEB-DLRip].[MVO].(AlexFilm).torrent без регистрации
Золото ЗОЛОТАЯ РАЗДАЧА! СКАЧАННОЕ НЕ ЗАСЧИТЫВАЕТСЯ! Золото
Дата: Зарегистрирован   [ Тип: внутренний ] Как тут cкачать?
MAGNET ссылка
MAGNET ссылка


Скачать .torrent

11 KB

Статус: проверено DHT
Скачан: торрент - 28 раз, раздача полностью - 0 раз
Размер: 4 GB
Оценка:  - (Голосов: 0)
Поблагодарили: 3
Поделиться ссылкой на эту раздачу с друзьями:
В контактеFacebookОдноклассникиTwitterLivejournalМой МирLiveinternet
 

 
Показать сообщения:    


Вы не можете начинать темы
Вы не можете отвечать на сообщения
Вы не можете редактировать свои сообщения
Вы не можете удалять свои сообщения
Вы не можете голосовать в опросах
Вы не можете прикреплять файлы к сообщениям
Вы можете скачивать файлы