Loading...
Error

Скачать Осажденные / L'assedio (Бернардо Бертолуччи) [1998, драма, мелодрама, HDRip] [MVO] торрент без регистрации

 
Статистика раздачи
Размер:  748 MB   |    Скачан:  5 раз

Полного источника не было: 20 минут

 
Автор Сообщение

Marsianka

[] 

Информация о фильме
Название: Осажденные
Оригинальное название: L'assedio
Год выхода: 1998
Жанр: драма, мелодрама
Режиссер: Бернардо Бертолуччи
В ролях: Тэнди Ньютон, Дэвид Тьюлис, Клаудио Сантамария, Джон С. Оджванг, Массимо Де Росси, Сирил Нри, Пол Осул, Вероника Лазар, Джан Франко Маццони, Мария Мадзетти Ди Пьетралата

О фильме: Спасаясь от наказания, которое грозит ей на родине, молодая африканская женщина по имени Шандурай отправляется в Рим, где находит пристанище в доме английского пианиста мистера Кински.
В качестве платы за предоставленное жилье она работает служанкой и в то же время пытается выучиться на врача.
Несмотря на то что Кински целиком поглощен своей профессией, общаясь в основном только с музыкой Баха, Моцарта и Грига, между ним и Шандурай возникают довольно необычные романтические отношения.



Страна: Италия, Великобритания
Студия: BBC Television Centre, Fiction Films, Mediaset, Navert Film
Продолжительность: 01:33:46
Перевод: Профессиональный (многоголосый, закадровый) R5
Субтитры: Нет

Семпл

Файл
Кодек: XviD
Качество: HDRip
Видео: 656x368 (1.78:1), 23.976 fps, XviD build 73 ~977 kbps avg, 0.17 bit/pixel
Звук: 48 kHz, MPEG Layer 3, 2 ch, ~128.00 kbps avg
General
Complete name : L.assedio.1998.HDRip.ot.Portablius.avi
Format : AVI
Format/Info : Audio Video Interleave
File size : 748 MiB
Duration : 1 h 33 min
Overall bit rate : 1 115 kb/s
Writing application : VirtualDubMod 1.5.10.3 | www.virtualdub-fr.org || (build 2550/release)
Writing library : VirtualDubMod build 2550/release

Video
ID : 0
Format : MPEG-4 Visual
Format profile : Advanced Simple@L5
Format settings, BVOP : 1
Format settings, QPel : No
Format settings, GMC : No warppoints
Format settings, Matrix : Custom
Codec ID : XVID
Codec ID/Hint : XviD
Duration : 1 h 33 min
Bit rate : 978 kb/s
Width : 656 pixels
Height : 368 pixels
Display aspect ratio : 16:9
Frame rate : 23.976 (23976/1000) FPS
Color space : YUV
Chroma subsampling : 4:2:0
Bit depth : 8 bits
Scan type : Progressive
Compression mode : Lossy
Bits/(Pixel*Frame) : 0.169
Stream size : 656 MiB (88%)
Writing library : XviD 73

Audio
ID : 1
Format : MPEG Audio
Format version : Version 1
Format profile : Layer 3
Codec ID : 55
Codec ID/Hint : MP3
Duration : 1 h 33 min
Bit rate mode : Constant
Bit rate : 128 kb/s
Channel(s) : 2 channels
Sampling rate : 48.0 kHz
Compression mode : Lossy
Stream size : 85.8 MiB (11%)
Alignment : Aligned on interleaves
Interleave, duration : 42 ms (1.00 video frame)
Interleave, preload duratio : 504 ms
Writing library : LAME3.99r
Encoding settings : -m s -V 4 -q 2 -lowpass 17 -b 128



Скачать Осажденные.L'assedio.(Бернардо.Бертолуччи).[1998.драма.мелодрама.HDRip].[MVO].torrent без регистрации
Золото ЗОЛОТАЯ РАЗДАЧА! СКАЧАННОЕ НЕ ЗАСЧИТЫВАЕТСЯ! Золото
Дата: Зарегистрирован   [ Тип: внутренний ] Как тут cкачать?
MAGNET ссылка
MAGNET ссылка


Скачать .torrent

15 KB

Статус: проверено DHT
Скачан: торрент - 5 раз, раздача полностью - 1 раз
Размер: 748 MB
Оценка:  - (Голосов: 0)
Поблагодарили: 0
Поделиться ссылкой на эту раздачу с друзьями:
В контактеFacebookОдноклассникиTwitterLivejournalМой МирLiveinternet
 

 
Показать сообщения:    


Вы не можете начинать темы
Вы не можете отвечать на сообщения
Вы не можете редактировать свои сообщения
Вы не можете удалять свои сообщения
Вы не можете голосовать в опросах
Вы не можете прикреплять файлы к сообщениям
Вы можете скачивать файлы